  0
SECTION
  2
HEADER
  9
$ACADVER
  1
AC1018
  9
$ACADMAINTVER
 70
     0
  9
$DWGCODEPAGE
  3
ANSI_1252
  9
$INSBASE
 10
0.0
 20
0.0
 30
0.0
  9
$EXTMIN
 10
389.904069
 20
38.259924
 30
389.904069
  9
$EXTMAX
 10
393.426735
 20
42.029976
 30
393.426735
  9
$LIMMIN
 10
389.904069
 20
38.259924
  9
$LIMMAX
 10
393.426735
 20
42.029976
  9
$ORTHOMODE
 70
     0
  9
$REGENMODE
 70
     1
  9
$FILLMODE
 70
     1
  9
$QTEXTMODE
 70
     0
  9
$MIRRTEXT
 70
     1
  9
$LTSCALE
 40
1.0
  9
$ATTMODE
 70
     1
  9
$TEXTSIZE
 40
0.2
  9
$TRACEWID
 40
0.05
  9
$TEXTSTYLE
  7
Standard
  9
$CLAYER
  8
0
  9
$CELTYPE
  6
ByLayer
  9
$CECOLOR
 62
   256
  9
$CELTSCALE
 40
1.0
  9
$DISPSILH
 70
     0
  9
$DIMSCALE
 40
1.0
  9
$DIMASZ
 40
0.18
  9
$DIMEXO
 40
0.0625
  9
$DIMDLI
 40
0.38
  9
$DIMRND
 40
0.0
  9
$DIMDLE
 40
0.0
  9
$DIMEXE
 40
0.18
  9
$DIMTP
 40
0.0
  9
$DIMTM
 40
0.0
  9
$DIMTXT
 40
0.18
  9
$DIMCEN
 40
0.09
  9
$DIMTSZ
 40
0.0
  9
$DIMTOL
 70
     0
  9
$DIMLIM
 70
     0
  9
$DIMTIH
 70
     1
  9
$DIMTOH
 70
     1
  9
$DIMSE1
 70
     0
  9
$DIMSE2
 70
     0
  9
$DIMTAD
 70
     0
  9
$DIMZIN
 70
     0
  9
$DIMBLK
  1

  9
$DIMASO
 70
     1
  9
$DIMSHO
 70
     1
  9
$DIMPOST
  1

  9
$DIMAPOST
  1

  9
$DIMALT
 70
     0
  9
$DIMALTD
 70
     2
  9
$DIMALTF
 40
25.4
  9
$DIMLFAC
 40
1.0
  9
$DIMTOFL
 70
     0
  9
$DIMTVP
 40
0.0
  9
$DIMTIX
 70
     0
  9
$DIMSOXD
 70
     0
  9
$DIMSAH
 70
     0
  9
$DIMBLK1
  1

  9
$DIMBLK2
  1

  9
$DIMSTYLE
  2
Standard
  9
$DIMCLRD
 70
     0
  9
$DIMCLRE
 70
     0
  9
$DIMCLRT
 70
     0
  9
$DIMTFAC
 40
1.0
  9
$DIMGAP
 40
0.09
  9
$DIMJUST
 70
     0
  9
$DIMSD1
 70
     0
  9
$DIMSD2
 70
     0
  9
$DIMTOLJ
 70
     1
  9
$DIMTZIN
 70
     0
  9
$DIMALTZ
 70
     0
  9
$DIMALTTZ
 70
     0
  9
$DIMUPT
 70
     0
  9
$DIMDEC
 70
     4
  9
$DIMTDEC
 70
     4
  9
$DIMALTU
 70
     2
  9
$DIMALTTD
 70
     2
  9
$DIMTXSTY
  7
Standard
  9
$DIMAUNIT
 70
     0
  9
$DIMADEC
 70
     0
  9
$DIMALTRND
 40
0.0
  9
$DIMAZIN
 70
     0
  9
$DIMDSEP
 70
    46
  9
$DIMATFIT
 70
     3
  9
$DIMFRAC
 70
     0
  9
$DIMLDRBLK
  1

  9
$DIMLUNIT
 70
     2
  9
$DIMLWD
 70
    -2
  9
$DIMLWE
 70
    -2
  9
$DIMTMOVE
 70
     0
  9
$LUNITS
 70
     2
  9
$LUPREC
 70
     4
  9
$SKETCHINC
 40
0.1
  9
$FILLETRAD
 40
0.5
  9
$AUNITS
 70
     0
  9
$AUPREC
 70
     0
  9
$MENU
  1
.
  9
$ELEVATION
 40
0.0
  9
$PELEVATION
 40
0.0
  9
$THICKNESS
 40
0.0
  9
$LIMCHECK
 70
     0
  9
$CHAMFERA
 40
0.5
  9
$CHAMFERB
 40
0.5
  9
$CHAMFERC
 40
1.0
  9
$CHAMFERD
 40
0.0
  9
$SKPOLY
 70
     0
  9
$TDCREATE
 40
2457155.36891434
  9
$TDUCREATE
 40
2457155.285581007
  9
$TDUPDATE
 40
2457155.368914352
  9
$TDUUPDATE
 40
2457155.285581018
  9
$TDINDWG
 40
0.0000000116
  9
$TDUSRTIMER
 40
0.0000000116
  9
$USRTIMER
 70
     1
  9
$ANGBASE
 50
0.0
  9
$ANGDIR
 70
     0
  9
$PDMODE
 70
    65
  9
$PDSIZE
 40
0.0
  9
$PLINEWID
 40
0.0
  9
$SPLFRAME
 70
     0
  9
$SPLINETYPE
 70
     6
  9
$SPLINESEGS
 70
     8
  9
$HANDSEED
  5
1B5
  9
$SURFTAB1
 70
     6
  9
$SURFTAB2
 70
     6
  9
$SURFTYPE
 70
     6
  9
$SURFU
 70
     6
  9
$SURFV
 70
     6
  9
$UCSBASE
  2

  9
$UCSNAME
  2

  9
$UCSORG
 10
0.0
 20
0.0
 30
0.0
  9
$UCSXDIR
 10
1.0
 20
0.0
 30
0.0
  9
$UCSYDIR
 10
0.0
 20
1.0
 30
0.0
  9
$UCSORTHOREF
  2

  9
$UCSORTHOVIEW
 70
     0
  9
$UCSORGTOP
 10
0.0
 20
0.0
 30
0.0
  9
$UCSORGBOTTOM
 10
0.0
 20
0.0
 30
0.0
  9
$UCSORGLEFT
 10
0.0
 20
0.0
 30
0.0
  9
$UCSORGRIGHT
 10
0.0
 20
0.0
 30
0.0
  9
$UCSORGFRONT
 10
0.0
 20
0.0
 30
0.0
  9
$UCSORGBACK
 10
0.0
 20
0.0
 30
0.0
  9
$PUCSBASE
  2

  9
$PUCSNAME
  2

  9
$PUCSORG
 10
0.0
 20
0.0
 30
0.0
  9
$PUCSXDIR
 10
1.0
 20
0.0
 30
0.0
  9
$PUCSYDIR
 10
0.0
 20
1.0
 30
0.0
  9
$PUCSORTHOREF
  2

  9
$PUCSORTHOVIEW
 70
     0
  9
$PUCSORGTOP
 10
0.0
 20
0.0
 30
0.0
  9
$PUCSORGBOTTOM
 10
0.0
 20
0.0
 30
0.0
  9
$PUCSORGLEFT
 10
0.0
 20
0.0
 30
0.0
  9
$PUCSORGRIGHT
 10
0.0
 20
0.0
 30
0.0
  9
$PUCSORGFRONT
 10
0.0
 20
0.0
 30
0.0
  9
$PUCSORGBACK
 10
0.0
 20
0.0
 30
0.0
  9
$USERI1
 70
     0
  9
$USERI2
 70
     0
  9
$USERI3
 70
     0
  9
$USERI4
 70
     0
  9
$USERI5
 70
     0
  9
$USERR1
 40
0.0
  9
$USERR2
 40
0.0
  9
$USERR3
 40
0.0
  9
$USERR4
 40
0.0
  9
$USERR5
 40
0.0
  9
$WORLDVIEW
 70
     1
  9
$SHADEDGE
 70
     3
  9
$SHADEDIF
 70
    70
  9
$TILEMODE
 70
     0
  9
$MAXACTVP
 70
    64
  9
$PINSBASE
 10
0.0
 20
0.0
 30
0.0
  9
$PLIMCHECK
 70
     0
  9
$PEXTMIN
 10
0.031793
 20
0.03157
 30
0.0
  9
$PEXTMAX
 10
0.164876
 20
0.178572
 30
0.0
  9
$PLIMMIN
 10
0.031793
 20
0.03157
  9
$PLIMMAX
 10
0.164876
 20
0.178572
  9
$UNITMODE
 70
     0
  9
$VISRETAIN
 70
     1
  9
$PLINEGEN
 70
     0
  9
$PSLTSCALE
 70
     0
  9
$TREEDEPTH
 70
  3020
  9
$CMLSTYLE
  2
Standard
  9
$CMLJUST
 70
     0
  9
$CMLSCALE
 40
1.0
  9
$PROXYGRAPHICS
 70
     1
  9
$MEASUREMENT
 70
     1
  9
$CELWEIGHT
370
    -1
  9
$ENDCAPS
280
     0
  9
$JOINSTYLE
280
     0
  9
$LWDISPLAY
290
     0
  9
$INSUNITS
 70
     6
  9
$HYPERLINKBASE
  1

  9
$STYLESHEET
  1

  9
$XEDIT
290
     1
  9
$CEPSNTYPE
380
     0
  9
$PSTYLEMODE
290
     1
  9
$FINGERPRINTGUID
  2
{8C584B70-B990-4593-A160-9E1C1BA82181}
  9
$VERSIONGUID
  2
{FAEB1C32-E019-11D5-929B-00C0DF256EC4}
  9
$EXTNAMES
290
     1
  9
$PSVPSCALE
 40
0.0
  9
$OLESTARTUP
290
     0
  9
$SORTENTS
280
   127
  9
$INDEXCTL
280
     0
  9
$HIDETEXT
280
     1
  9
$XCLIPFRAME
290
     0
  9
$HALOGAP
280
     0
  9
$OBSCOLOR
 70
   257
  9
$OBSLTYPE
280
     0
  9
$INTERSECTIONDISPLAY
280
     0
  9
$INTERSECTIONCOLOR
 70
   257
  9
$DIMASSOC
280
     2
  9
$PROJECTNAME
  1

  0
ENDSEC
  0
SECTION
  2
CLASSES
  0
CLASS
  1
ACDBDICTIONARYWDFLT
  2
AcDbDictionaryWithDefault
  3
ObjectDBX Classes
 90
        0
 91
       14
280
     0
281
     0
  0
CLASS
  1
VISUALSTYLE
  2
AcDbVisualStyle
  3
ObjectDBX Classes
 90
     4095
 91
       14
280
     0
281
     0
  0
CLASS
  1
MATERIAL
  2
AcDbMaterial
  3
ObjectDBX Classes
 90
     1153
 91
       14
280
     0
281
     0
  0
CLASS
  1
SCALE
  2
AcDbScale
  3
ObjectDBX Classes
 90
     1153
 91
       13
280
     0
281
     0
  0
CLASS
  1
SORTENTSTABLE
  2
AcDbSortentsTable
  3
ObjectDBX Classes
 90
        0
 91
       13
280
     0
281
     0
  0
CLASS
  1
DICTIONARYVAR
  2
AcDbDictionaryVar
  3
ObjectDBX Classes
 90
        0
 91
       13
280
     0
281
     0
  0
ENDSEC
  0
SECTION
  2
TABLES
  0
TABLE
  2
VPORT
  5
8
330
0
100
AcDbSymbolTable
 70
     1
  0
VPORT
  5
29
330
8
100
AcDbSymbolTableRecord
100
AcDbViewportTableRecord
  2
*Active
 70
     0
 10
0.0
 20
0.0
 11
1.0
 21
1.0
 12
391.665402
 22
40.14495
 13
0.0
 23
0.0
 14
0.5
 24
0.5
 15
0.5
 25
0.5
 16
0.0
 26
0.0
 36
1.0
 17
0.0
 27
0.0
 37
0.0
 40
4.524062
 41
1.121258
 42
50.0
 43
0.0
 44
0.0
 50
0.0
 51
0.0
 71
     0
 72
   100
 73
     1
 74
     3
 75
     0
 76
     0
 77
     0
 78
     0
281
     0
 65
     1
110
0.0
120
0.0
130
0.0
111
1.0
121
0.0
131
0.0
112
0.0
122
1.0
132
0.0
 79
     0
146
0.0
  0
ENDTAB
  0
TABLE
  2
LTYPE
  5
5
330
0
100
AcDbSymbolTable
 70
     4
  0
LTYPE
  5
14
330
5
100
AcDbSymbolTableRecord
100
AcDbLinetypeTableRecord
  2
ByBlock
 70
     0
  3

 72
    65
 73
     0
 40
0.0
  0
LTYPE
  5
15
330
5
100
AcDbSymbolTableRecord
100
AcDbLinetypeTableRecord
  2
ByLayer
 70
     0
  3

 72
    65
 73
     0
 40
0.0
  0
LTYPE
  5
16
330
5
100
AcDbSymbolTableRecord
100
AcDbLinetypeTableRecord
  2
Continuous
 70
     0
  3
Solid line
 72
    65
 73
     0
 40
0.0
  0
LTYPE
  5
44
330
5
100
AcDbSymbolTableRecord
100
AcDbLinetypeTableRecord
  2
AUSGEZOGEN
 70
     0
  3
durchgezogene Linie
 72
    65
 73
     0
 40
0.0
  0
LTYPE
  5
46
330
5
100
AcDbSymbolTableRecord
100
AcDbLinetypeTableRecord
  2
PUNKT2_S9
 70
     0
  3
Eng Punktiert
 72
    65
 73
     2
 40
0.0
 49
0.0
 74
     0
 49
0.0
 74
     0
  0
LTYPE
  5
A4
330
5
100
AcDbSymbolTableRecord
100
AcDbLinetypeTableRecord
  2
STRICHLINIE2_S3
 70
     0
  3
Gestrichelt
 72
    65
 73
     2
 40
0.125
 49
0.075
 74
     0
 49
-0.05
 74
     0
  0
ENDTAB
  0
TABLE
  2
LAYER
  5
2
330
0
100
AcDbSymbolTable
 70
     4
  0
LAYER
  5
10
330
2
100
AcDbSymbolTableRecord
100
AcDbLayerTableRecord
  2
0
 70
     0
 62
     7
  6
Continuous
370
    -3
390
F
  0
LAYER
  5
47
330
2
100
AcDbSymbolTableRecord
100
AcDbLayerTableRecord
  2
STANDARD
 70
     0
 62
     7
  6
AUSGEZOGEN
370
    25
390
F
1001
AcAecLayerStandard
1000

1000
STANDARD
  0
LAYER
  5
A5
330
2
100
AcDbSymbolTableRecord
100
AcDbLayerTableRecord
  2
XR$1$STANDARD
 70
     0
 62
     7
  6
AUSGEZOGEN
370
    25
390
F
1001
AcAecLayerStandard
1000

1000
STANDARD
  0
LAYER
  5
BC
330
2
100
AcDbSymbolTableRecord
100
AcDbLayerTableRecord
  2
DEFPOINTS
 70
     0
 62
     7
  6
Continuous
290
     0
370
    -3
390
F
  0
ENDTAB
  0
TABLE
  2
STYLE
  5
3
330
0
100
AcDbSymbolTable
 70
     3
  0
STYLE
  5
11
330
3
100
AcDbSymbolTableRecord
100
AcDbTextStyleTableRecord
  2
Standard
 70
     0
 40
0.0
 41
1.0
 50
0.0
 71
     0
 42
0.2
  3
txt
  4

  0
STYLE
  5
45
330
3
100
AcDbSymbolTableRecord
100
AcDbTextStyleTableRecord
  2
ARIAL
 70
     0
 40
0.0
 41
1.0
 50
0.0
 71
     0
 42
2.5
  3
ARIAL.TTF
  4

1001
ACAD
1000
Arial
1071
       34
  0
STYLE
  5
49
330
3
100
AcDbSymbolTableRecord
100
AcDbTextStyleTableRecord
  2
CALIBRI
 70
     0
 40
0.0
 41
1.0
 50
0.0
 71
     0
 42
2.5
  3
Calibri
  4

1001
ACAD
1000
Calibri
1071
        0
  0
ENDTAB
  0
TABLE
  2
VIEW
  5
6
330
0
100
AcDbSymbolTable
 70
     0
  0
ENDTAB
  0
TABLE
  2
UCS
  5
7
330
0
100
AcDbSymbolTable
 70
     0
  0
ENDTAB
  0
TABLE
  2
APPID
  5
9
330
0
100
AcDbSymbolTable
 70
     3
  0
APPID
  5
12
330
9
100
AcDbSymbolTableRecord
100
AcDbRegAppTableRecord
  2
ACAD
 70
     0
  0
APPID
  5
48
330
9
100
AcDbSymbolTableRecord
100
AcDbRegAppTableRecord
  2
AcAecLayerStandard
 70
     0
  0
APPID
  5
CE
330
9
100
AcDbSymbolTableRecord
100
AcDbRegAppTableRecord
  2
NEM_ODX
 70
     0
  0
ENDTAB
  0
TABLE
  2
DIMSTYLE
  5
A
330
0
100
AcDbSymbolTable
 70
     6
100
AcDbDimStyleTable
  0
DIMSTYLE
105
27
330
A
100
AcDbSymbolTableRecord
100
AcDbDimStyleTableRecord
  2
Standard
 70
     0
340
11
  0
DIMSTYLE
105
CD
102
{ACAD_REACTORS
330
CF
102
}
330
A
100
AcDbSymbolTableRecord
100
AcDbDimStyleTableRecord
  2
_DIMSTYLE_2
 70
     0
  3
<>
 41
0.075
 42
0.000001
 43
0.0
 44
0.0
 45
0.0001
 73
     0
 74
     0
 75
     1
 76
     1
 77
     2
 78
     4
140
0.075
141
0.0
147
0.0375
172
     1
173
     1
174
     1
176
    94
177
    94
178
    94
271
     3
272
     0
274
     0
278
     0
279
     2
283
     0
340
49
343
BD
344
BD
371
     0
372
    25
  0
DIMSTYLE
105
DA
102
{ACAD_REACTORS
330
DB
330
17D
102
}
330
A
100
AcDbSymbolTableRecord
100
AcDbDimStyleTableRecord
  2
_DIMSTYLE_3
 70
     0
  3
<>
 41
0.075
 42
0.000001
 43
0.0
 44
0.0
 45
0.0001
 73
     0
 74
     0
 75
     1
 76
     1
 77
     2
 78
     4
140
0.075
141
0.0
147
0.0375
172
     1
173
     1
174
     1
176
    94
177
    94
178
    94
271
     3
272
     0
274
     0
278
     0
279
     2
283
     0
340
49
343
BD
344
BD
371
     0
372
    25
  0
DIMSTYLE
105
165
102
{ACAD_REACTORS
330
166
102
}
330
A
100
AcDbSymbolTableRecord
100
AcDbDimStyleTableRecord
  2
_DIMSTYLE_4
 70
     0
  3
<>
 41
0.075
 42
0.000001
 43
0.0
 44
0.0
 45
0.0001
 73
     0
 74
     0
 75
     1
 76
     1
 77
     2
 78
     4
140
0.075
141
0.0
147
0.0375
172
     1
173
     1
174
     1
176
    94
177
    94
178
    94
271
     2
272
     0
274
     0
278
     0
279
     2
283
     0
340
49
343
BD
344
BD
371
     0
372
    25
  0
DIMSTYLE
105
171
102
{ACAD_REACTORS
330
172
102
}
330
A
100
AcDbSymbolTableRecord
100
AcDbDimStyleTableRecord
  2
_DIMSTYLE_5
 70
     0
  3
<>
 41
0.075
 42
0.000001
 43
0.0
 44
0.0
 45
0.01
 73
     0
 74
     0
 75
     1
 76
     1
 77
     2
 78
     4
140
0.075
141
0.0
144
100.0
147
0.0375
172
     1
173
     1
174
     1
176
    94
177
    94
178
    94
271
     1
272
     0
274
     0
278
     0
279
     2
283
     0
340
49
343
BD
344
BD
371
     0
372
    25
  0
DIMSTYLE
105
188
102
{ACAD_REACTORS
330
189
102
}
330
A
100
AcDbSymbolTableRecord
100
AcDbDimStyleTableRecord
  2
_DIMSTYLE_6
 70
     0
  3
<>
 41
0.075
 42
0.000001
 43
0.0
 44
0.0
 45
0.01
 73
     0
 74
     0
 75
     1
 76
     1
 77
     2
 78
     4
140
0.075
141
0.0
144
100.0
147
0.0375
172
     1
173
     1
174
     1
176
    94
177
    94
178
    94
271
     1
272
     0
274
     0
278
     0
279
     2
283
     0
340
49
343
BD
344
BD
371
     0
372
    25
  0
ENDTAB
  0
TABLE
  2
BLOCK_RECORD
  5
1
330
0
100
AcDbSymbolTable
 70
    10
  0
BLOCK_RECORD
  5
1F
330
1
100
AcDbSymbolTableRecord
100
AcDbBlockTableRecord
  2
*Model_Space
340
22
  0
BLOCK_RECORD
  5
3F
102
{ACAD_XDICTIONARY
360
A2
102
}
330
1
100
AcDbSymbolTableRecord
100
AcDbBlockTableRecord
  2
*Paper_Space
340
40
  0
BLOCK_RECORD
  5
A6
330
1
100
AcDbSymbolTableRecord
100
AcDbBlockTableRecord
  2
NSY140
340
0
1001
ACAD
1000
DesignCenter Data
1002
{
1070
     1
1070
     6
1002
}
  0
BLOCK_RECORD
  5
BD
330
1
100
AcDbSymbolTableRecord
100
AcDbBlockTableRecord
  2
ALL_ML_STRICH
340
0
102
{BLKREFS
331
C8
331
C9
331
D5
331
D6
331
160
331
161
331
16C
331
16D
331
178
331
179
331
183
331
184
102
}
1001
ACAD
1000
DesignCenter Data
1002
{
1070
     1
1070
     6
1002
}
  0
BLOCK_RECORD
  5
C3
330
1
100
AcDbSymbolTableRecord
100
AcDbBlockTableRecord
  2
*D4
340
0
  0
BLOCK_RECORD
  5
D0
330
1
100
AcDbSymbolTableRecord
100
AcDbBlockTableRecord
  2
*D5
340
0
  0
BLOCK_RECORD
  5
15B
330
1
100
AcDbSymbolTableRecord
100
AcDbBlockTableRecord
  2
*D6
340
0
  0
BLOCK_RECORD
  5
167
330
1
100
AcDbSymbolTableRecord
100
AcDbBlockTableRecord
  2
*D7
340
0
  0
BLOCK_RECORD
  5
173
330
1
100
AcDbSymbolTableRecord
100
AcDbBlockTableRecord
  2
*D8
340
0
  0
BLOCK_RECORD
  5
17E
330
1
100
AcDbSymbolTableRecord
100
AcDbBlockTableRecord
  2
*D9
340
0
  0
ENDTAB
  0
ENDSEC
  0
SECTION
  2
BLOCKS
  0
BLOCK
  5
20
330
1F
100
AcDbEntity
  8
0
100
AcDbBlockBegin
  2
*Model_Space
 70
     0
 10
0.0
 20
0.0
 30
0.0
  3
*Model_Space
  1

  0
ENDBLK
  5
21
330
1F
100
AcDbEntity
  8
0
100
AcDbBlockEnd
  0
BLOCK
  5
41
330
3F
100
AcDbEntity
 67
     1
  8
0
100
AcDbBlockBegin
  2
*Paper_Space
 70
     0
 10
0.0
 20
0.0
 30
0.0
  3
*Paper_Space
  1

  0
ENDBLK
  5
42
330
3F
100
AcDbEntity
 67
     1
  8
0
100
AcDbBlockEnd
  0
BLOCK
  5
A7
330
A6
100
AcDbEntity
  8
0
100
AcDbBlockBegin
  2
NSY140
 70
     0
 10
0.0
 20
0.0
 30
0.0
  3
NSY140
  1

  0
LINE
  5
A9
330
A6
100
AcDbEntity
  8
0
  6
ByBlock
 62
     0
370
    -2
100
AcDbLine
 10
0.0
 20
-0.0125
 30
0.0
 11
0.0
 21
0.0125
 31
0.0
  0
LINE
  5
AA
330
A6
100
AcDbEntity
  8
0
  6
ByBlock
 62
     0
370
    -2
100
AcDbLine
 10
-0.0125
 20
0.0
 30
0.0
 11
0.0125
 21
0.0
 31
0.0
  0
LINE
  5
AB
330
A6
100
AcDbEntity
  8
0
  6
ByBlock
 62
     0
370
    -2
100
AcDbLine
 10
-0.0075
 20
-0.0075
 30
0.0
 11
0.0075
 21
0.0075
 31
0.0
  0
ENDBLK
  5
A8
330
A6
100
AcDbEntity
  8
0
100
AcDbBlockEnd
  0
BLOCK
  5
BE
330
BD
100
AcDbEntity
  8
0
100
AcDbBlockBegin
  2
ALL_ML_STRICH
 70
     0
 10
0.0
 20
0.0
 30
0.0
  3
ALL_ML_STRICH
  1

  0
LINE
  5
C0
330
BD
100
AcDbEntity
  8
0
  6
ByBlock
 62
     0
370
    -2
100
AcDbLine
 10
-1.0
 20
0.0
 30
0.0
 11
0.5
 21
0.0
 31
0.0
  0
LINE
  5
C1
330
BD
100
AcDbEntity
  8
0
  6
ByBlock
 62
     0
370
    -2
100
AcDbLine
 10
0.0
 20
-0.5
 30
0.0
 11
0.0
 21
0.5
 31
0.0
  0
LINE
  5
C2
330
BD
100
AcDbEntity
  8
0
  6
ByBlock
 62
     0
370
    -2
100
AcDbLine
 10
-0.3
 20
-0.3
 30
0.0
 11
0.3
 21
0.3
 31
0.0
  0
ENDBLK
  5
BF
330
BD
100
AcDbEntity
  8
0
100
AcDbBlockEnd
  0
BLOCK
  5
C4
330
C3
100
AcDbEntity
  8
0
100
AcDbBlockBegin
  2
*D4
 70
     1
 10
0.0
 20
0.0
 30
0.0
  3
*D4
  1

  0
MTEXT
  5
C6
330
C3
100
AcDbEntity
  8
XR$1$STANDARD
  6
AUSGEZOGEN
 62
    94
370
    25
100
AcDbMText
 10
390.647116
 20
38.393526
 30
0.0
 40
0.075
 41
0.00375
 71
     1
 72
     5
  1
\W0.83;1.05
  7
CALIBRI
 73
     1
 44
0.60241
  0
LINE
  5
C7
330
C3
100
AcDbEntity
  8
XR$1$STANDARD
  6
AUSGEZOGEN
 62
    94
370
    -2
100
AcDbLine
 10
390.20852
 20
38.297424
 30
0.0
 11
391.255292
 21
38.297424
 31
0.0
  0
INSERT
  5
C8
330
C3
100
AcDbEntity
  8
XR$1$STANDARD
  6
AUSGEZOGEN
 62
    94
370
    25
100
AcDbBlockReference
  2
ALL_ML_STRICH
 10
390.20852
 20
38.297424
 30
0.0
 41
0.075
 42
0.075
 43
0.075
 50
180.0
  0
INSERT
  5
C9
330
C3
100
AcDbEntity
  8
XR$1$STANDARD
  6
AUSGEZOGEN
 62
    94
370
    25
100
AcDbBlockReference
  2
ALL_ML_STRICH
 10
391.255292
 20
38.297424
 30
0.0
 41
0.075
 42
0.075
 43
0.075
  0
POINT
  5
CA
330
C3
100
AcDbEntity
  8
DEFPOINTS
  6
AUSGEZOGEN
 62
    94
370
    25
100
AcDbPoint
 10
390.20852
 20
39.015112
 30
0.0
  0
POINT
  5
CB
330
C3
100
AcDbEntity
  8
DEFPOINTS
  6
AUSGEZOGEN
 62
    94
370
    25
100
AcDbPoint
 10
391.255292
 20
39.015112
 30
0.0
  0
POINT
  5
CC
330
C3
100
AcDbEntity
  8
DEFPOINTS
  6
AUSGEZOGEN
 62
    94
370
    25
100
AcDbPoint
 10
390.20852
 20
38.297424
 30
0.0
  0
ENDBLK
  5
C5
330
C3
100
AcDbEntity
  8
0
100
AcDbBlockEnd
  0
BLOCK
  5
D1
330
D0
100
AcDbEntity
  8
0
100
AcDbBlockBegin
  2
*D5
 70
     1
 10
0.0
 20
0.0
 30
0.0
  3
*D5
  1

  0
MTEXT
  5
D3
330
D0
100
AcDbEntity
  8
XR$1$STANDARD
  6
AUSGEZOGEN
 62
    94
370
    25
100
AcDbMText
 10
389.912419
 20
38.930321
 30
0.0
 40
0.075
 41
0.00375
 71
     1
 72
     5
  1
\W0.83;1.05
  7
CALIBRI
 11
6.123233995736766E-17
 21
1.0
 31
0.0
 73
     1
 44
0.60241
  0
LINE
  5
D4
330
D0
100
AcDbEntity
  8
XR$1$STANDARD
  6
AUSGEZOGEN
 62
    94
370
    -2
100
AcDbLine
 10
390.00852
 20
38.497424
 30
0.0
 11
390.00852
 21
39.532799
 31
0.0
  0
INSERT
  5
D5
330
D0
100
AcDbEntity
  8
XR$1$STANDARD
  6
AUSGEZOGEN
 62
    94
370
    25
100
AcDbBlockReference
  2
ALL_ML_STRICH
 10
390.00852
 20
38.497424
 30
0.0
 41
0.075
 42
0.075
 43
0.075
 50
-90.0
  0
INSERT
  5
D6
330
D0
100
AcDbEntity
  8
XR$1$STANDARD
  6
AUSGEZOGEN
 62
    94
370
    25
100
AcDbBlockReference
  2
ALL_ML_STRICH
 10
390.00852
 20
39.532799
 30
0.0
 41
0.075
 42
0.075
 43
0.075
 50
90.0
  0
POINT
  5
D7
330
D0
100
AcDbEntity
  8
DEFPOINTS
  6
AUSGEZOGEN
 62
    94
370
    25
100
AcDbPoint
 10
390.731906
 20
38.497424
 30
0.0
  0
POINT
  5
D8
330
D0
100
AcDbEntity
  8
DEFPOINTS
  6
AUSGEZOGEN
 62
    94
370
    25
100
AcDbPoint
 10
390.731906
 20
39.532799
 30
0.0
  0
POINT
  5
D9
330
D0
100
AcDbEntity
  8
DEFPOINTS
  6
AUSGEZOGEN
 62
    94
370
    25
100
AcDbPoint
 10
390.00852
 20
38.497424
 30
0.0
  0
ENDBLK
  5
D2
330
D0
100
AcDbEntity
  8
0
100
AcDbBlockEnd
  0
BLOCK
  5
15C
330
15B
100
AcDbEntity
  8
0
100
AcDbBlockBegin
  2
*D6
 70
     1
 10
0.0
 20
0.0
 30
0.0
  3
*D6
  1

  0
MTEXT
  5
15E
330
15B
100
AcDbEntity
  8
XR$1$STANDARD
  6
AUSGEZOGEN
 62
    94
370
    25
100
AcDbMText
 10
390.728221
 20
41.380038
 30
0.0
 40
0.075
 41
0.25
 71
     5
 72
     1
  1
\W0.83;\A1;{1.05\H0.049500;\S^ ;}
  7
CALIBRI
 73
     1
 44
1.0
  0
LINE
  5
15F
330
15B
100
AcDbEntity
  8
XR$1$STANDARD
  6
AUSGEZOGEN
 62
    94
370
    -2
100
AcDbLine
 10
390.200518
 20
41.321437
 30
0.0
 11
391.250506
 21
41.321437
 31
0.0
  0
INSERT
  5
160
330
15B
100
AcDbEntity
  8
XR$1$STANDARD
  6
AUSGEZOGEN
 62
    94
370
    25
100
AcDbBlockReference
  2
ALL_ML_STRICH
 10
390.200518
 20
41.321437
 30
0.0
 41
0.075
 42
0.075
 43
0.075
 50
180.0
  0
INSERT
  5
161
330
15B
100
AcDbEntity
  8
XR$1$STANDARD
  6
AUSGEZOGEN
 62
    94
370
    25
100
AcDbBlockReference
  2
ALL_ML_STRICH
 10
391.250506
 20
41.321437
 30
0.0
 41
0.075
 42
0.075
 43
0.075
  0
POINT
  5
162
330
15B
100
AcDbEntity
  8
DEFPOINTS
  6
AUSGEZOGEN
 62
    94
370
    25
100
AcDbPoint
 10
390.200518
 20
40.888321
 30
0.0
  0
POINT
  5
163
330
15B
100
AcDbEntity
  8
DEFPOINTS
  6
AUSGEZOGEN
 62
    94
370
    25
100
AcDbPoint
 10
391.250506
 20
40.888409
 30
0.0
  0
POINT
  5
164
330
15B
100
AcDbEntity
  8
DEFPOINTS
  6
AUSGEZOGEN
 62
    94
370
    25
100
AcDbPoint
 10
390.200518
 20
41.321437
 30
0.0
  0
ENDBLK
  5
15D
330
15B
100
AcDbEntity
  8
0
100
AcDbBlockEnd
  0
BLOCK
  5
168
330
167
100
AcDbEntity
  8
0
100
AcDbBlockBegin
  2
*D7
 70
     1
 10
0.0
 20
0.0
 30
0.0
  3
*D7
  1

  0
MTEXT
  5
16A
330
167
100
AcDbEntity
  8
XR$1$STANDARD
  6
AUSGEZOGEN
 62
    94
370
    25
100
AcDbMText
 10
389.942671
 20
40.759072
 30
0.0
 40
0.075
 41
0.25
 71
     5
 72
     1
  1
\W0.83;\A1;{72\H0.049500;\S^ ;}
  7
CALIBRI
 11
6.123233995736766E-17
 21
1.0
 31
0.0
 73
     1
 44
1.0
  0
LINE
  5
16B
330
167
100
AcDbEntity
  8
XR$1$STANDARD
  6
AUSGEZOGEN
 62
    94
370
    -2
100
AcDbLine
 10
390.000518
 20
40.402704
 30
0.0
 11
390.000518
 21
41.122704
 31
0.0
  0
INSERT
  5
16C
330
167
100
AcDbEntity
  8
XR$1$STANDARD
  6
AUSGEZOGEN
 62
    94
370
    25
100
AcDbBlockReference
  2
ALL_ML_STRICH
 10
390.000518
 20
40.402704
 30
0.0
 41
0.075
 42
0.075
 43
0.075
 50
-90.0
  0
INSERT
  5
16D
330
167
100
AcDbEntity
  8
XR$1$STANDARD
  6
AUSGEZOGEN
 62
    94
370
    25
100
AcDbBlockReference
  2
ALL_ML_STRICH
 10
390.000518
 20
41.122704
 30
0.0
 41
0.075
 42
0.075
 43
0.075
 50
90.0
  0
POINT
  5
16E
330
167
100
AcDbEntity
  8
DEFPOINTS
  6
AUSGEZOGEN
 62
    94
370
    25
100
AcDbPoint
 10
390.388732
 20
40.402704
 30
0.0
  0
POINT
  5
16F
330
167
100
AcDbEntity
  8
DEFPOINTS
  6
AUSGEZOGEN
 62
    94
370
    25
100
AcDbPoint
 10
390.724941
 20
41.122704
 30
0.0
  0
POINT
  5
170
330
167
100
AcDbEntity
  8
DEFPOINTS
  6
AUSGEZOGEN
 62
    94
370
    25
100
AcDbPoint
 10
390.000518
 20
40.402704
 30
0.0
  0
ENDBLK
  5
169
330
167
100
AcDbEntity
  8
0
100
AcDbBlockEnd
  0
BLOCK
  5
174
330
173
100
AcDbEntity
  8
0
100
AcDbBlockBegin
  2
*D8
 70
     1
 10
0.0
 20
0.0
 30
0.0
  3
*D8
  1

  0
MTEXT
  5
176
330
173
100
AcDbEntity
  8
XR$1$STANDARD
  6
AUSGEZOGEN
 62
    94
370
    25
100
AcDbMText
 10
392.585089
 20
41.267538
 30
0.0
 40
0.075
 41
0.00375
 71
     1
 72
     5
  1
\W0.83;1.05
  7
CALIBRI
 11
-1.0
 21
1.224646799147353E-16
 31
0.0
 73
     1
 44
0.60241
  0
LINE
  5
177
330
173
100
AcDbEntity
  8
XR$1$STANDARD
  6
AUSGEZOGEN
 62
    94
370
    -2
100
AcDbLine
 10
393.189252
 20
41.321437
 30
0.0
 11
392.150506
 21
41.321437
 31
0.0
  0
INSERT
  5
178
330
173
100
AcDbEntity
  8
XR$1$STANDARD
  6
AUSGEZOGEN
 62
    94
370
    25
100
AcDbBlockReference
  2
ALL_ML_STRICH
 10
393.189252
 20
41.321437
 30
0.0
 41
0.075
 42
0.075
 43
0.075
 50
0.0
  0
INSERT
  5
179
330
173
100
AcDbEntity
  8
XR$1$STANDARD
  6
AUSGEZOGEN
 62
    94
370
    25
100
AcDbBlockReference
  2
ALL_ML_STRICH
 10
392.150506
 20
41.321437
 30
0.0
 41
0.075
 42
0.075
 43
0.075
 50
180.0
  0
POINT
  5
17A
330
173
100
AcDbEntity
  8
DEFPOINTS
  6
AUSGEZOGEN
 62
    94
370
    25
100
AcDbPoint
 10
393.189252
 20
40.803749
 30
0.0
  0
POINT
  5
17B
330
173
100
AcDbEntity
  8
DEFPOINTS
  6
AUSGEZOGEN
 62
    94
370
    25
100
AcDbPoint
 10
392.150506
 20
40.879304
 30
0.0
  0
POINT
  5
17C
330
173
100
AcDbEntity
  8
DEFPOINTS
  6
AUSGEZOGEN
 62
    94
370
    25
100
AcDbPoint
 10
393.189252
 20
41.321437
 30
0.0
  0
ENDBLK
  5
175
330
173
100
AcDbEntity
  8
0
100
AcDbBlockEnd
  0
BLOCK
  5
17F
330
17E
100
AcDbEntity
  8
0
100
AcDbBlockBegin
  2
*D9
 70
     1
 10
0.0
 20
0.0
 30
0.0
  3
*D9
  1

  0
MTEXT
  5
181
330
17E
100
AcDbEntity
  8
XR$1$STANDARD
  6
AUSGEZOGEN
 62
    94
370
    25
100
AcDbMText
 10
393.331387
 20
40.755032
 30
0.0
 40
0.075
 41
0.25
 71
     5
 72
     1
  1
\W0.83;\A1;{72\H0.049500;\S^ ;}
  7
CALIBRI
 11
6.123233995736766E-17
 21
1.0
 31
0.0
 73
     1
 44
1.0
  0
LINE
  5
182
330
17E
100
AcDbEntity
  8
XR$1$STANDARD
  6
AUSGEZOGEN
 62
    94
370
    -2
100
AcDbLine
 10
393.389235
 20
40.398655
 30
0.0
 11
393.389235
 21
41.118673
 31
0.0
  0
INSERT
  5
183
330
17E
100
AcDbEntity
  8
XR$1$STANDARD
  6
AUSGEZOGEN
 62
    94
370
    25
100
AcDbBlockReference
  2
ALL_ML_STRICH
 10
393.389235
 20
40.398655
 30
0.0
 41
0.075
 42
0.075
 43
0.075
 50
-90.0
  0
INSERT
  5
184
330
17E
100
AcDbEntity
  8
XR$1$STANDARD
  6
AUSGEZOGEN
 62
    94
370
    25
100
AcDbBlockReference
  2
ALL_ML_STRICH
 10
393.389235
 20
41.118673
 30
0.0
 41
0.075
 42
0.075
 43
0.075
 50
90.0
  0
POINT
  5
185
330
17E
100
AcDbEntity
  8
DEFPOINTS
  6
AUSGEZOGEN
 62
    94
370
    25
100
AcDbPoint
 10
392.324293
 20
40.398655
 30
0.0
  0
POINT
  5
186
330
17E
100
AcDbEntity
  8
DEFPOINTS
  6
AUSGEZOGEN
 62
    94
370
    25
100
AcDbPoint
 10
392.499507
 20
41.118673
 30
0.0
  0
POINT
  5
187
330
17E
100
AcDbEntity
  8
DEFPOINTS
  6
AUSGEZOGEN
 62
    94
370
    25
100
AcDbPoint
 10
393.389235
 20
40.398655
 30
0.0
  0
ENDBLK
  5
180
330
17E
100
AcDbEntity
  8
0
100
AcDbBlockEnd
  0
ENDSEC
  0
SECTION
  2
ENTITIES
  0
MTEXT
  5
AC
330
1F
100
AcDbEntity
  8
XR$1$STANDARD
  6
AUSGEZOGEN
 62
     7
370
    50
100
AcDbMText
 10
390.725512
 20
41.929976
 30
0.0
 40
0.125
 41
0.745833
 71
     5
 72
     5
  1
{\fCalibri|i0|b0;\H0.125000;\W1.000000;\C7;Pos. Kirk}\P
  7
CALIBRI
 73
     1
 44
1.0
  0
MTEXT
  5
AD
330
1F
100
AcDbEntity
  8
XR$1$STANDARD
  6
AUSGEZOGEN
 62
     7
370
    35
100
AcDbMText
 10
390.725512
 20
41.679976
 30
0.0
 40
0.0875
 41
0.835625
 71
     5
 72
     5
  1
{\L\fCalibri|i0|b0;\H0.087500;\W1.000000;\C7;Vorderansicht\l}\P
  7
CALIBRI
 73
     1
 44
1.0
  0
MTEXT
  5
AE
330
1F
100
AcDbEntity
  8
XR$1$STANDARD
  6
AUSGEZOGEN
 62
     7
370
    35
100
AcDbMText
 10
392.669879
 20
41.679976
 30
0.0
 40
0.0875
 41
0.799167
 71
     5
 72
     5
  1
{\L\fCalibri|i0|b0;\H0.087500;\W1.000000;\C7;Seitenansicht\l}\P
  7
CALIBRI
 73
     1
 44
1.0
  0
ELLIPSE
  5
AF
330
1F
100
AcDbEntity
  8
XR$1$STANDARD
  6
AUSGEZOGEN
 62
     7
370
    25
100
AcDbEllipse
 10
390.731906
 20
39.015112
 30
0.0
 11
0.523385803071867
 21
0.0
 31
0.0
210
0.0
220
0.0
230
1.0
 40
0.989112
 41
0.0
 42
6.283185307179586
  0
ELLIPSE
  5
B0
330
1F
100
AcDbEntity
  8
XR$1$STANDARD
  6
AUSGEZOGEN
 62
     7
370
    25
100
AcDbEllipse
 10
390.731906
 20
39.015112
 30
0.0
 11
0.5199295353229096
 21
0.0
 31
0.0
210
0.0
220
0.0
230
1.0
 40
0.98904
 41
0.0
 42
6.283185307179586
  0
ELLIPSE
  5
B1
330
1F
100
AcDbEntity
  8
XR$1$STANDARD
  6
AUSGEZOGEN
 62
     7
370
    25
100
AcDbEllipse
 10
390.731869
 20
38.854495
 30
0.0
 11
-0.3613824123033849
 21
-0.003529146134964524
 31
0.0
210
0.0
220
0.0
230
0.9999999999999999
 40
0.921343
 41
2.272561107186913
 42
7.132924994932681
  0
ELLIPSE
  5
B2
330
1F
100
AcDbEntity
  8
XR$1$STANDARD
  6
AUSGEZOGEN
 62
     7
370
    25
100
AcDbEllipse
 10
390.731869
 20
38.854495
 30
0.0
 11
-0.3510278222655368
 21
-0.003428026489494519
 31
0.0
210
0.0
220
0.0
230
0.9999999999999999
 40
0.919023
 41
2.272561107186905
 42
7.132924994932761
  0
SPLINE
  5
B3
330
1F
100
AcDbEntity
  8
XR$1$STANDARD
  6
AUSGEZOGEN
 62
     7
370
    25
100
AcDbSpline
210
0.0
220
0.0
230
1.0
 70
     8
 71
     3
 72
     9
 73
     5
 74
     3
 42
0.0000000001
 43
0.0000000001
 44
0.0
 12
0.730460561472418
 22
0.6829548800128744
 32
0.0
 13
0.5924590978102124
 23
0.8056005321633725
 33
0.0
 40
0.0
 40
0.0
 40
0.0
 40
0.0
 40
0.002645379477282
 40
0.0103700988687413
 40
0.0103700988687413
 40
0.0103700988687413
 40
0.0103700988687413
 10
390.4957344484147
 20
38.60207802293695
 30
0.0
 10
390.4963785635408
 20
38.60268024787812
 30
0.0
 10
390.4989070292734
 20
38.60504384317871
 30
0.0
 10
390.5009688495183
 20
38.60784785535363
 30
0.0
 10
390.5024943762788
 20
38.60992220137115
 30
0.0
 11
390.4957344484147
 21
38.60207802293695
 31
0.0
 11
390.4976382041154
 21
38.60391479913754
 31
0.0
 11
390.5024943762788
 21
38.60992220137115
 31
0.0
  0
SPLINE
  5
B4
330
1F
100
AcDbEntity
  8
XR$1$STANDARD
  6
AUSGEZOGEN
 62
     7
370
    25
100
AcDbSpline
210
0.0
220
0.0
230
1.0
 70
     8
 71
     3
 72
     9
 73
     5
 74
     3
 42
0.0000000001
 43
0.0000000001
 44
0.0
 12
-0.7274358258520598
 22
0.6861757204003448
 32
0.0
 13
-0.5998521845705613
 23
0.8001108402377294
 33
0.0
 40
0.0
 40
0.0
 40
0.0
 40
0.0
 40
0.002049783136754
 40
0.0103658314796297
 40
0.0103658314796297
 40
0.0103658314796297
 40
0.0103658314796297
 10
390.9676487366154
 20
38.60249242040773
 30
0.0
 10
390.9671517080525
 20
38.6029612575479
 30
0.0
 10
390.9646361154506
 20
38.60533387261319
 30
0.0
 10
390.9625497349954
 20
38.60811706361826
 30
0.0
 10
390.9608869350736
 20
38.61033498376062
 30
0.0
 11
390.9676487366154
 21
38.60249242040773
 31
0.0
 11
390.9661736037034
 21
38.60391565397939
 31
0.0
 11
390.9608869350736
 21
38.61033498376062
 31
0.0
  0
SPLINE
  5
B5
330
1F
100
AcDbEntity
  8
XR$1$STANDARD
  6
AUSGEZOGEN
 62
     7
370
    25
100
AcDbSpline
210
0.0
220
0.0
230
1.0
 70
     8
 71
     3
 72
    17
 73
    13
 74
    11
 42
0.0000000001
 43
0.0000000001
 44
0.0
 12
-0.7467847012346627
 22
-0.6650658689196549
 32
0.0
 13
-0.7689161186322447
 23
0.6393496715472088
 33
0.0
 40
0.0
 40
0.0
 40
0.0
 40
0.0
 40
0.0367375079389724
 40
0.1087244381960394
 40
0.1594862613164529
 40
0.2254484830877654
 40
0.2586211207111347
 40
0.3083680094811466
 40
0.357786928936577
 40
0.4085463608663464
 40
0.4620726416825611
 40
0.5173653574461757
 40
0.5173653574461757
 40
0.5173653574461757
 40
0.5173653574461757
 10
390.9676487366154
 20
38.60249242040773
 30
0.0
 10
390.958503733652
 20
38.59434813286127
 30
0.0
 10
390.9313804227199
 20
38.57019285932373
 30
0.0
 10
390.8844160202618
 20
38.54406500054078
 30
0.0
 10
390.8255295464431
 20
38.52167292374306
 30
0.0
 10
390.7760021472809
 20
38.51248263436813
 30
0.0
 10
390.7263855990291
 20
38.51038061202639
 30
0.0
 10
390.6822157469173
 20
38.51319172521245
 30
0.0
 10
390.6331412686816
 20
38.52365657609341
 30
0.0
 10
390.5851055806242
 20
38.54184767692074
 30
0.0
 10
390.537909478306
 20
38.56700970901055
 30
0.0
 10
390.5099062685459
 20
38.59029422971614
 30
0.0
 10
390.4957344484147
 20
38.60207802293695
 30
0.0
 11
390.9676487366154
 21
38.60249242040773
 31
0.0
 11
390.9396153770526
 21
38.57874846873188
 31
0.0
 11
390.8774239226526
 21
38.5424946257983
 31
0.0
 11
390.8298673607549
 21
38.52474255248351
 31
0.0
 11
390.7650429934514
 21
38.51254353183781
 31
0.0
 11
390.731902484542
 21
38.51108388937592
 31
0.0
 11
390.6822669472608
 21
38.51441050644208
 31
0.0
 11
390.6339410276966
 21
38.5247466129823
 31
0.0
 11
390.5863844657988
 21
38.54249184756227
 31
0.0
 11
390.5394433900344
 21
38.56821339775066
 31
0.0
 11
390.4957344484147
 21
38.60207802293695
 31
0.0
  0
SPLINE
  5
B6
330
1F
100
AcDbEntity
  8
XR$1$STANDARD
  6
AUSGEZOGEN
 62
     7
370
    25
100
AcDbSpline
210
0.0
220
0.0
230
1.0
 70
     8
 71
     3
 72
    15
 73
    11
 74
     9
 42
0.0000000001
 43
0.0000000001
 44
0.0
 12
0.7786042572678752
 22
-0.6275152671962178
 32
0.0
 13
0.7625295665884183
 23
0.6469533677773684
 33
0.0
 40
0.0
 40
0.0
 40
0.0
 40
0.0
 40
0.060116683668835
 40
0.1220031004681557
 40
0.1852498400501572
 40
0.2511484448610104
 40
0.3306530781301986
 40
0.4090119802448027
 40
0.4550391977389731
 40
0.499942903027257
 40
0.499942903027257
 40
0.499942903027257
 40
0.499942903027257
 10
390.5024943762788
 20
38.60992220137115
 30
0.0
 10
390.5180967448912
 20
38.59734748909935
 30
0.0
 10
390.5498880431729
 20
38.57172531848132
 30
0.0
 10
390.6059503166098
 20
38.54450652840306
 30
0.0
 10
390.667931041807
 20
38.52859587955422
 30
0.0
 10
390.7375441677428
 20
38.52254749131053
 30
0.0
 10
390.8122672149751
 20
38.53058614784081
 30
0.0
 10
390.8773126010932
 20
38.55241471514019
 30
0.0
 10
390.9263013956898
 20
38.58099154917895
 30
0.0
 10
390.9494734674298
 20
38.60065144930664
 30
0.0
 10
390.9608869350736
 20
38.61033498376062
 30
0.0
 11
390.5024943762788
 21
38.60992220137115
 31
0.0
 11
390.5506725925993
 21
38.57396562857123
 31
0.0
 11
390.6062065386577
 21
38.54665428624901
 31
0.0
 11
390.6673550859986
 21
38.5304986300924
 31
0.0
 11
390.7330137789493
 21
38.52488060944257
 31
0.0
 11
390.812052456564
 21
38.53347561684119
 31
0.0
 11
390.8861638257451
 21
38.55892404505794
 31
0.0
 11
390.9258216489324
 21
38.58228559060405
 31
0.0
 11
390.9608869350736
 21
38.61033498376062
 31
0.0
  0
SPLINE
  5
B7
330
1F
100
AcDbEntity
  8
XR$1$STANDARD
  6
AUSGEZOGEN
 62
     7
370
    25
100
AcDbSpline
210
0.0
220
0.0
230
1.0
 70
     8
 71
     3
 72
    30
 73
    26
 74
    24
 42
0.0000000001
 43
0.0000000001
 44
0.0
 12
0.04847789754792411
 22
0.9988242555371456
 32
0.0
 13
0.02926785906861946
 23
-0.9995716044513968
 33
0.0
 40
0.0
 40
0.0
 40
0.0
 40
0.0
 40
0.0304226897005393
 40
0.1456095127199089
 40
0.2346172028627564
 40
0.2954960162032718
 40
0.3389559957311769
 40
0.3780101657470626
 40
0.4171397601151339
 40
0.4433237468264086
 40
0.4908388722734292
 40
0.5230132901514175
 40
0.5445328526350477
 40
0.5882143593388547
 40
0.6292982703331966
 40
0.6685517002425717
 40
0.7076767514358473
 40
0.7467425195427904
 40
0.7901963018068024
 40
0.8510817077794863
 40
0.9158433418498465
 40
0.964199832297717
 40
1.011728725285715
 40
1.053537981715825
 40
1.086230104571887
 40
1.086230104571887
 40
1.086230104571887
 40
1.086230104571887
 10
390.9608869350736
 20
38.61033498376062
 30
0.0
 10
390.9613785444184
 20
38.62046395722447
 30
0.0
 10
390.9637310247303
 20
38.66893376542857
 30
0.0
 10
390.9598019734823
 20
38.7475289068023
 30
0.0
 10
390.9412687068913
 20
38.83408325929389
 30
0.0
 10
390.9235807942075
 20
38.89612372836852
 30
0.0
 10
390.9041045263001
 20
38.94007693414605
 30
0.0
 10
390.8797726662404
 20
38.97289847893376
 30
0.0
 10
390.8536955239173
 20
38.99629716405978
 30
0.0
 10
390.8218404004621
 20
39.0164444276542
 30
0.0
 10
390.7886886111899
 20
39.02966061092791
 30
0.0
 10
390.7553191548004
 20
39.0354895752137
 30
0.0
 10
390.7228533153444
 20
39.03697531811343
 30
0.0
 10
390.6873414197302
 20
39.03295023640059
 30
0.0
 10
390.6479348060844
 20
39.01952010309377
 30
0.0
 10
390.6133705190035
 20
38.99921656443917
 30
0.0
 10
390.5840424322578
 20
38.97290170461151
 30
0.0
 10
390.5597049549398
 20
38.94007817957004
 30
0.0
 10
390.5402068645767
 20
38.89612921581485
 30
0.0
 10
390.5248379534587
 20
38.84183828541273
 30
0.0
 10
390.5117329437525
 20
38.78527692976692
 30
0.0
 10
390.504601594847
 20
38.73215333003913
 30
0.0
 10
390.501294157072
 20
38.68633527149806
 30
0.0
 10
390.5014486589262
 20
38.64563610068799
 30
0.0
 10
390.5021754334639
 20
38.62081490726987
 30
0.0
 10
390.5024943762788
 20
38.60992220137115
 30
0.0
 11
390.9608869350736
 21
38.61033498376062
 31
0.0
 11
390.9621524276326
 21
38.64073134172006
 31
0.0
 11
390.9559086627474
 21
38.75574881690254
 31
0.0
 11
390.9381621459046
 21
38.84296939959099
 31
0.0
 11
390.9204122096945
 21
38.90120314992777
 31
0.0
 11
390.9020365292488
 21
38.94058721001208
 31
0.0
 11
390.8788156051873
 21
38.97198811575316
 31
0.0
 11
390.849699691716
 21
38.99812982071169
 31
0.0
 11
390.8275763845922
 21
39.0121355496111
 31
0.0
 11
390.7834152545297
 21
39.029670706806
 31
0.0
 11
390.7517348155031
 21
39.03528701777213
 31
0.0
 11
390.7302372526148
 21
39.03625982779945
 31
0.0
 11
390.6868420608515
 21
39.03126669654326
 31
0.0
 11
390.6479501759633
 21
39.01802626481165
 31
0.0
 11
390.6141121161028
 21
38.99813110297447
 31
0.0
 11
390.5849996219989
 21
38.97199238996242
 31
0.0
 11
390.5617684398352
 21
38.94058464548652
 31
0.0
 11
390.5433927593896
 21
38.90120742413703
 31
0.0
 11
390.5256496619142
 21
38.84296469796081
 31
0.0
 11
390.5116439330149
 21
38.77973567926321
 31
0.0
 11
390.5050616507561
 21
38.73182927333768
 31
0.0
 11
390.5017961548824
 21
38.68441269179321
 31
0.0
 11
390.5016593801861
 21
38.6426036590859
 31
0.0
 11
390.5024943762788
 21
38.60992220137115
 31
0.0
  0
SPLINE
  5
B8
330
1F
100
AcDbEntity
  8
XR$1$STANDARD
  6
AUSGEZOGEN
 62
     7
370
    25
100
AcDbSpline
210
0.0
220
0.0
230
1.0
 70
    11
 71
     3
 72
    39
 73
    35
 74
    33
 42
0.0000000001
 43
0.0000000001
 44
0.0
 12
-0.1160710861576379
 22
0.9932409088223191
 32
0.0
 13
-0.2925960853462161
 23
0.956236127136007
 33
0.0
 40
0.0
 40
0.0
 40
0.0
 40
0.0
 40
0.0026366427009775
 40
0.0050098143984883
 40
0.0090356223802912
 40
0.0118045379093144
 40
0.0243820281067552
 40
0.0480049370867942
 40
0.0554945967884237
 40
0.0747940288146781
 40
0.0866170851797188
 40
0.0991969406168875
 40
0.1019630054668474
 40
0.103950503040294
 40
0.106007640526566
 40
0.1083808122240779
 40
0.111300876922646
 40
0.1130157489233997
 40
0.1156378866726827
 40
0.1182287361986058
 40
0.1208193613336353
 40
0.123395319456784
 40
0.1322463545597574
 40
0.1410814984858611
 40
0.1586775005569543
 40
0.1636018885524629
 40
0.1772674859064533
 40
0.19495770308507
 40
0.2038072578503125
 40
0.2063837639900779
 40
0.2089710946328354
 40
0.2115686072515323
 40
0.2141905754929342
 40
0.216185655689907
 40
0.216185655689907
 40
0.216185655689907
 40
0.216185655689907
 10
390.6825439160208
 20
39.01310429913962
 30
0.0
 10
390.6824419033601
 20
39.0139772396038
 30
0.0
 10
390.6822471072465
 20
39.01564414456209
 30
0.0
 10
390.6829822701491
 20
39.01868573157537
 30
0.0
 10
390.6855848297057
 20
39.02070847662968
 30
0.0
 10
390.6916210238997
 20
39.02292361191947
 30
0.0
 10
390.7046147377419
 20
39.02471713105613
 30
0.0
 10
390.7190261737737
 20
39.02662025261223
 30
0.0
 10
390.7358410713445
 20
39.02685466726211
 30
0.0
 10
390.748730402
 20
39.02633216829057
 30
0.0
 10
390.7631411817404
 20
39.02413175131014
 30
0.0
 10
390.7721028742651
 20
39.02287704884814
 30
0.0
 10
390.7776457886491
 20
39.0209754977374
 30
0.0
 10
390.7794255205688
 20
39.0195605364884
 30
0.0
 10
390.7810380217047
 20
39.01805600023651
 30
0.0
 10
390.7815283714193
 20
39.01554541327902
 30
0.0
 10
390.7814213936893
 20
39.01318749507958
 30
0.0
 10
390.7805213766791
 20
39.01091366444248
 30
0.0
 10
390.7790827226459
 20
39.0090493626921
 30
0.0
 10
390.7768948646357
 20
39.00758334500744
 30
0.0
 10
390.7743497145431
 20
39.00681576959433
 30
0.0
 10
390.7696635819277
 20
39.00748877863877
 30
0.0
 10
390.7631526264426
 20
39.00918525818628
 30
0.0
 10
390.7514702293073
 20
39.01077215903743
 30
0.0
 10
390.7410525681291
 20
39.01168877043406
 30
0.0
 10
390.7289875474442
 20
39.01184675780782
 30
0.0
 10
390.7169041843255
 20
39.01141612165719
 30
0.0
 10
390.7035197312297
 20
39.009842218881
 30
0.0
 10
390.6941417412752
 20
39.00750526776851
 30
0.0
 10
390.6894610175497
 20
39.00681007084082
 30
0.0
 10
390.6869103740287
 20
39.00758060248154
 30
0.0
 10
390.6847385115037
 20
39.00905520374877
 30
0.0
 10
390.6831931869454
 20
39.01098241048324
 30
0.0
 10
390.6827385002393
 20
39.01246837655266
 30
0.0
 10
390.6825439160208
 20
39.01310429913962
 30
0.0
 11
390.6825439160208
 21
39.01310429913962
 31
0.0
 11
390.6824037219571
 21
39.01573721204306
 31
0.0
 11
390.6830260468251
 21
39.01802733336397
 31
0.0
 11
390.6860077352042
 21
39.02073226669343
 31
0.0
 11
390.6885756801269
 21
39.02176790759685
 31
0.0
 11
390.700916177099
 21
39.02419800927096
 31
0.0
 11
390.7244140699205
 21
39.02662511899861
 31
0.0
 11
390.731902484542
 21
39.02676167998442
 31
0.0
 11
390.7511774586158
 21
39.02579036593036
 31
0.0
 11
390.7628922113524
 21
39.02419373506171
 31
0.0
 11
390.7752361276919
 21
39.0217687624387
 31
0.0
 11
390.7778006532473
 21
39.02073226669343
 31
0.0
 11
390.7793974978264
 21
39.01954895186011
 31
0.0
 11
390.7807823416263
 21
39.01802776078488
 31
0.0
 11
390.7814046664944
 21
39.01573763946399
 31
0.0
 11
390.7812029238173
 21
39.01282455214363
 31
0.0
 11
390.7805771795818
 21
39.01122792127498
 31
0.0
 11
390.7789803350027
 21
39.00914809104962
 31
0.0
 11
390.7768329722711
 21
39.00769849297948
 31
0.0
 11
390.7743368340639
 21
39.00700521623769
 31
0.0
 11
390.7717688891412
 21
39.00720824117749
 31
0.0
 11
390.7631042121316
 21
39.0090149494312
 31
0.0
 11
390.7543677284065
 21
39.01033161959339
 31
0.0
 11
390.7368263736082
 21
39.01171731823512
 31
0.0
 11
390.731902484542
 21
39.01178741526696
 31
0.0
 11
390.7182455311182
 21
39.01130143767423
 31
0.0
 11
390.7007041763198
 21
39.00901131635334
 31
0.0
 11
390.6920394993103
 21
39.00721187425536
 31
0.0
 11
390.6894715543875
 21
39.00700201058075
 31
0.0
 11
390.6869788355477
 21
39.00769528732254
 31
0.0
 11
390.6848280534487
 21
39.00915172412749
 31
0.0
 11
390.6832312088696
 21
39.01123134064239
 31
0.0
 11
390.6825439160208
 21
39.01310429913962
 31
0.0
  0
SPLINE
  5
B9
330
1F
100
AcDbEntity
  8
XR$1$STANDARD
  6
AUSGEZOGEN
 62
     7
370
    25
100
AcDbSpline
210
0.0
220
0.0
230
1.0
 70
    11
 71
     3
 72
    33
 73
    29
 74
    27
 42
0.0000000001
 43
0.0000000001
 44
0.0
 12
0.008123144443637789
 22
-0.9999670067178954
 32
0.0
 13
-0.1353426869660208
 23
-0.9907988479428192
 33
0.0
 40
0.0
 40
0.0
 40
0.0
 40
0.0
 40
0.0018043404287888
 40
0.0028988365059927
 40
0.0045798121495628
 40
0.0061724245611946
 40
0.0077542812286095
 40
0.0094286691964018
 40
0.0183466626809396
 40
0.0362427981064022
 40
0.0552437539081292
 40
0.073264658744846
 40
0.091075144739301
 40
0.0927462676393215
 40
0.0943314211138306
 40
0.0959240335255094
 40
0.0986603475172607
 40
0.1004675863164002
 40
0.1031763831178703
 40
0.1062916311752587
 40
0.1231375166403272
 40
0.1478926259533891
 40
0.167045292155575
 40
0.192669616749796
 40
0.1941640770252797
 40
0.1958293780806587
 40
0.1975080471992724
 40
0.1985709173389083
 40
0.1985709173389083
 40
0.1985709173389083
 40
0.1985709173389083
 10
390.6853888297035
 20
39.01476440201576
 30
0.0
 10
390.6853937153428
 20
39.01416297504986
 30
0.0
 10
390.6854016480902
 20
39.01318644610672
 30
0.0
 10
390.6858838509553
 20
39.01171470456919
 30
0.0
 10
390.6868382385776
 20
39.01056696860186
 30
0.0
 10
390.6881774607403
 20
39.0096342557628
 30
0.0
 10
390.689776168194
 20
39.00916554260706
 30
0.0
 10
390.6938354746266
 20
39.00979157221756
 30
0.0
 10
390.7030078565589
 20
39.01208331569402
 30
0.0
 10
390.7182694089509
 20
39.01379793664783
 30
0.0
 10
390.7365556256424
 20
39.01433316576914
 30
0.0
 10
390.7548853201441
 20
39.01298720358739
 30
0.0
 10
390.767012403873
 20
39.01028574217432
 30
0.0
 10
390.7740315448458
 20
39.00916324542742
 30
0.0
 10
390.7756259638898
 20
39.00963774117167
 30
0.0
 10
390.7772818757596
 20
39.01075071571343
 30
0.0
 10
390.7783686197582
 20
39.01263081901953
 30
0.0
 10
390.7785661968217
 20
39.0150697122227
 30
0.0
 10
390.7775581360916
 20
39.01763616283945
 30
0.0
 10
390.7704549053002
 20
39.02106862403397
 30
0.0
 10
390.7555236406643
 20
39.02200204857866
 30
0.0
 10
390.7353771439772
 20
39.02454156052319
 30
0.0
 10
390.7122030040815
 20
39.02283221187828
 30
0.0
 10
390.6968074623674
 20
39.0214393098953
 30
0.0
 10
390.6875619094096
 20
39.01844642843197
 30
0.0
 10
390.686368969119
 20
39.01730528168854
 30
0.0
 10
390.6855621199119
 20
39.01603300206138
 30
0.0
 10
390.6854367802703
 20
39.01511543218571
 30
0.0
 10
390.6853888297035
 20
39.01476440201576
 30
0.0
 11
390.6853888297035
 21
39.01476440201576
 31
0.0
 11
390.6855187656649
 21
39.01296474620731
 31
0.0
 11
390.6858709605078
 21
39.01192846417251
 31
0.0
 11
390.6869070288322
 21
39.01060474156504
 31
0.0
 11
390.6882234852839
 21
39.00970843988345
 31
0.0
 11
390.6897485231475
 21
39.00928828511331
 31
0.0
 11
390.6914171744422
 21
39.0094267694933
 31
0.0
 11
390.7001502387999
 21
39.01123347774702
 31
0.0
 11
390.71790017501
 21
39.01351633291218
 31
0.0
 11
390.7368947609564
 21
39.01400829439786
 31
0.0
 11
390.7548566979457
 21
39.01255164388245
 31
0.0
 11
390.7723912140092
 21
39.009428479177
 31
0.0
 11
390.7740564459365
 21
39.00928828511331
 31
0.0
 11
390.7755849031674
 21
39.00970843988345
 31
0.0
 11
390.7769013596192
 21
39.01060474156504
 31
0.0
 11
390.778286203419
 21
39.01296474620731
 31
0.0
 11
390.7784263974827
 21
39.01476653912039
 31
0.0
 11
390.7773834904236
 21
39.01726652411588
 31
0.0
 11
390.7747471581528
 21
39.0189261995711
 31
0.0
 11
390.7581803230655
 21
39.02197969466562
 31
0.0
 11
390.7334959097537
 21
39.02384923379545
 31
0.0
 11
390.7143645491111
 21
39.02294609337905
 31
0.0
 11
390.6890578109312
 21
39.01892427617693
 31
0.0
 11
390.687669547764
 21
39.01837097978837
 31
0.0
 11
390.6864248980278
 21
39.01726460072172
 31
0.0
 11
390.6855905723805
 21
39.01580795020631
 31
0.0
 11
390.6853888297035
 21
39.01476440201576
 31
0.0
  0
SPLINE
  5
BA
330
1F
100
AcDbEntity
  8
XR$1$STANDARD
  6
AUSGEZOGEN
 62
     7
370
    25
100
AcDbSpline
210
0.0
220
0.0
230
1.0
 70
     8
 71
     3
 72
    17
 73
    13
 74
    11
 42
0.0000000001
 43
0.0000000001
 44
0.0
 12
-0.9545036760585771
 22
-0.29819914887649
 32
0.0
 13
0.03850534296866808
 23
-0.9992583942919196
 33
0.0
 40
0.0
 40
0.0
 40
0.0
 40
0.0
 40
0.0327095232927924
 40
0.0634081954044622
 40
0.1100907594157421
 40
0.1410788567942815
 40
0.2014813515942488
 40
0.2783936958255258
 40
0.3394621151998407
 40
0.3972879635807208
 40
0.4452562321925583
 40
0.4785014739390444
 40
0.4785014739390444
 40
0.4785014739390444
 40
0.4785014739390444
 10
390.6830260468251
 20
39.01802733336397
 30
0.0
 10
390.6726189267501
 20
39.01477601602861
 30
0.0
 10
390.652356627805
 20
39.00844581489313
 30
0.0
 10
390.6202163977648
 20
38.99027627499648
 30
0.0
 10
390.5926892956297
 20
38.96635256887785
 30
0.0
 10
390.5646342693171
 20
38.92949009629972
 30
0.0
 10
390.5443479407703
 20
38.87654665900445
 30
0.0
 10
390.5248698713651
 20
38.8134938806874
 30
0.0
 10
390.5109076631915
 20
38.74960266536989
 30
0.0
 10
390.5037922658605
 20
38.69440216195562
 30
0.0
 10
390.5010245928822
 20
38.64806477858636
 30
0.0
 10
390.5020676698003
 20
38.62099573033296
 30
0.0
 10
390.5024943762788
 20
38.60992220137115
 30
0.0
 11
390.6830260468251
 21
39.01802733336397
 31
0.0
 11
390.6521799334459
 21
39.00714476917
 31
0.0
 11
390.6253447380351
 21
38.99223568614373
 31
0.0
 11
390.5901286731096
 21
38.961591101731
 31
0.0
 11
390.5714794432714
 21
38.93684300270132
 31
0.0
 11
390.5469318046559
 21
38.88165355790917
 31
0.0
 11
390.5244665607914
 21
38.80809527140617
 31
0.0
 11
390.5115755456667
 21
38.74840294715981
 31
0.0
 11
390.5040905504126
 21
38.69106357511045
 31
0.0
 11
390.5016593801861
 21
38.64315695547446
 31
0.0
 11
390.5024943762788
 21
38.60992220137115
 31
0.0
  0
SPLINE
  5
BB
330
1F
100
AcDbEntity
  8
XR$1$STANDARD
  6
AUSGEZOGEN
 62
     7
370
    25
100
AcDbSpline
210
0.0
220
0.0
230
1.0
 70
     8
 71
     3
 72
    19
 73
    15
 74
    13
 42
0.0000000001
 43
0.0000000001
 44
0.0
 12
0.9620371256989811
 22
-0.2729186120015323
 32
0.0
 13
-0.05986843480523426
 23
-0.9982062765350513
 33
0.0
 40
0.0
 40
0.0
 40
0.0
 40
0.0
 40
0.016300697375204
 40
0.0480722660852614
 40
0.0791470942733486
 40
0.1101894511790041
 40
0.1411831811595451
 40
0.2015780378095194
 40
0.2784881804041514
 40
0.3249776396412552
 40
0.3830415987011733
 40
0.4259443367527827
 40
0.4477923166057074
 40
0.4782150063062467
 40
0.4782150063062467
 40
0.4782150063062467
 40
0.4782150063062467
 10
390.7807823416263
 20
39.01802776078488
 30
0.0
 10
390.7860096336428
 20
39.01654483955078
 30
0.0
 10
390.8014384018849
 20
39.01216787955826
 30
0.0
 10
390.8255788327865
 20
39.00112255712651
 30
0.0
 10
390.8516978944053
 20
38.98364052089561
 30
0.0
 10
390.8742823231987
 20
38.962167574105
 30
0.0
 10
390.8991897383232
 20
38.92949283404399
 30
0.0
 10
390.9194575261239
 20
38.87654516961041
 30
0.0
 10
390.9375189300353
 20
38.81812955806109
 30
0.0
 10
390.9509223043736
 20
38.7590778713892
 30
0.0
 10
390.958454925952
 20
38.71044492975555
 30
0.0
 10
390.9614442680864
 20
38.66959562807023
 30
0.0
 10
390.9625384623795
 20
38.6378714464015
 30
0.0
 10
390.9614940546786
 20
38.62045769036334
 30
0.0
 10
390.9608869350736
 20
38.61033498376062
 30
0.0
 11
390.7807823416263
 21
39.01802776078488
 31
0.0
 11
390.7963849151048
 21
39.01330839263173
 31
0.0
 11
390.8253606345124
 21
39.00027611489102
 31
0.0
 11
390.8511529228639
 21
38.98294398263591
 31
0.0
 11
390.8736865540767
 21
38.96159302512516
 31
0.0
 11
390.8923357839149
 21
38.93683787365021
 31
0.0
 11
390.9168800031629
 21
38.88165526759287
 31
0.0
 11
390.9393384082927
 21
38.80809719480033
 31
0.0
 11
390.9495965105139
 21
38.76275360474641
 31
0.0
 11
390.9583364136064
 21
38.70535118811048
 31
0.0
 11
390.9615916513779
 21
38.66257212361187
 31
0.0
 11
390.9621524276326
 21
38.64073134172006
 31
0.0
 11
390.9608869350736
 21
38.61033498376062
 31
0.0
  0
DIMENSION
  5
CF
330
1F
100
AcDbEntity
  8
XR$1$STANDARD
  6
AUSGEZOGEN
 62
    94
370
    25
100
AcDbDimension
  2
*D4
 10
391.255292
 20
38.297424
 30
0.0
 11
390.731906
 21
38.334924
 31
0.0
 70
   160
  1
\W0.83;1.05
 71
     5
 42
-1.0
  3
_DIMSTYLE_2
100
AcDbAlignedDimension
 13
390.20852
 23
39.015111
 33
0.0
 14
391.255292
 24
39.015111
 34
0.0
100
AcDbRotatedDimension
1001
ACAD
1000
DSTYLE
1002
{
1070
     3
1000
<>
1070
   372
1070
    25
1070
   371
1070
     0
1070
   178
1070
    94
1070
   177
1070
    94
1070
   176
1070
    94
1002
}
1001
NEM_ODX
1000
MASSLINIE
1002
{
1000
UTF_TYPE
1070
     6
1000
ODXVALUES
1070
     3
1070
     2
1070
   467
1040
0.1
1002
}
  0
DIMENSION
  5
DB
330
1F
100
AcDbEntity
  8
XR$1$STANDARD
  6
AUSGEZOGEN
 62
    94
370
    25
100
AcDbDimension
  2
*D5
 10
390.00852
 20
39.532799
 30
0.0
 11
389.97102
 21
39.015112
 31
0.0
 70
   160
  1
\W0.83;1.05
 71
     5
 42
-1.0
  3
_DIMSTYLE_3
100
AcDbAlignedDimension
 13
390.731905
 23
38.497424
 33
0.0
 14
390.731905
 24
39.532799
 34
0.0
 50
90.0
100
AcDbRotatedDimension
1001
ACAD
1000
DSTYLE
1002
{
1070
     3
1000
<>
1070
   372
1070
    25
1070
   371
1070
     0
1070
   178
1070
    94
1070
   177
1070
    94
1070
   176
1070
    94
1002
}
1001
NEM_ODX
1000
MASSLINIE
1002
{
1000
UTF_TYPE
1070
     6
1000
ODXVALUES
1070
     3
1070
     2
1070
   467
1040
0.1
1002
}
  0
HATCH
  5
DC
330
1F
100
AcDbEntity
  8
XR$1$STANDARD
  6
AUSGEZOGEN
 62
   255
370
    25
100
AcDbHatch
 10
0.0
 20
0.0
 30
0.0
210
0.0
220
0.0
230
1.0
  2
SOLID
 70
     1
 71
     0
 91
        1
 92
        3
 72
     0
 73
     1
 93
      144
 10
390.7319059039094
 20
38.49742437142648
 10
390.7547356719951
 20
38.49791709503557
 10
390.7775219823197
 20
38.49939432793544
 10
390.8002214598465
 20
38.50185325812933
 10
390.8227908948296
 20
38.50528920490383
 10
390.8451873250669
 20
38.50969562773899
 10
390.8673681176807
 20
38.51506413875848
 10
390.8892910502713
 20
38.52138451869646
 10
390.9109143912907
 20
38.52864473635049
 10
390.9321969794801
 20
38.53683097148362
 10
390.9530983022235
 20
38.545927641132
 10
390.9735785726648
 20
38.55591742926793
 10
390.9935988054453
 20
38.56678131976191
 10
391.0131208909143
 20
38.57849863258093
 10
391.0321076676721
 20
38.59104706315406
 10
391.0505229933103
 20
38.60440272483051
 10
391.0683318132099
 20
38.61854019434918
 10
391.0855002272698
 20
38.63343256023334
 10
391.1019955544384
 20
38.64905147401807
 10
391.1177863949225
 20
38.66536720421328
 10
391.13284268996
 20
38.68234869289923
 10
391.1471357790375
 20
38.69996361484701
 10
391.1606384544476
 20
38.71817843905156
 10
391.1733250130802
 20
38.73695849255972
 10
391.1851713053498
 20
38.75626802647226
 10
391.1961547811658
 20
38.77607028399388
 10
391.2062545328579
 20
38.79632757040193
 10
391.2154513349745
 20
38.81700132480034
 10
391.2237276808802
 20
38.83805219352264
 10
391.23106781608
 20
38.85944010504374
 10
391.2374577682096
 20
38.88112434625845
 10
391.2428853736317
 20
38.90306363998116
 10
391.2473403005911
 20
38.92521622351934
 10
391.250814068881
 20
38.94753992817115
 10
391.2533000659861
 20
38.96999225949597
 10
391.2547935596696
 20
38.99253047820503
 10
391.2552917069813
 20
39.01511168151804
 10
391.2547935596696
 20
39.03769288483105
 10
391.2533000659861
 20
39.0602311035401
 10
391.250814068881
 20
39.08268343486493
 10
391.2473403005911
 20
39.10500713951674
 10
391.2428853736317
 20
39.12715972305491
 10
391.2374577682096
 20
39.14909901677763
 10
391.23106781608
 20
39.17078325799233
 10
391.2237276808802
 20
39.19217116951343
 10
391.2154513349745
 20
39.21322203823573
 10
391.2062545328579
 20
39.23389579263414
 10
391.1961547811658
 20
39.25415307904219
 10
391.1851713053498
 20
39.27395533656382
 10
391.1733250130802
 20
39.29326487047635
 10
391.1606384544476
 20
39.31204492398451
 10
391.1471357790375
 20
39.33025974818906
 10
391.13284268996
 20
39.34787467013685
 10
391.1177863949225
 20
39.36485615882279
 10
391.1019955544384
 20
39.381171889018
 10
391.0855002272698
 20
39.39679080280274
 10
391.0683318132099
 20
39.41168316868689
 10
391.0505229933103
 20
39.42582063820556
 10
391.0321076676721
 20
39.43917629988201
 10
391.0131208909143
 20
39.45172473045514
 10
390.9935988054453
 20
39.46344204327416
 10
390.9735785726648
 20
39.47430593376814
 10
390.9530983022235
 20
39.48429572190408
 10
390.9321969794801
 20
39.49339239155245
 10
390.9109143912907
 20
39.50157862668558
 10
390.8892910502713
 20
39.50883884433961
 10
390.8673681176807
 20
39.5151592242776
 10
390.8451873250669
 20
39.52052773529709
 10
390.8227908948296
 20
39.52493415813224
 10
390.8002214598465
 20
39.52837010490675
 10
390.7775219823197
 20
39.53082903510063
 10
390.7547356719951
 20
39.5323062680005
 10
390.7319059039094
 20
39.5327989916096
 10
390.7090761358237
 20
39.5323062680005
 10
390.6862898254991
 20
39.53082903510063
 10
390.6635903479724
 20
39.52837010490675
 10
390.6410209129892
 20
39.52493415813224
 10
390.6186244827519
 20
39.52052773529709
 10
390.5964436901381
 20
39.5151592242776
 10
390.5745207575475
 20
39.50883884433961
 10
390.5528974165281
 20
39.50157862668558
 10
390.5316148283387
 20
39.49339239155245
 10
390.5107135055954
 20
39.48429572190408
 10
390.4902332351541
 20
39.47430593376814
 10
390.4702130023735
 20
39.46344204327416
 10
390.4506909169046
 20
39.45172473045514
 10
390.4317041401467
 20
39.43917629988201
 10
390.4132888145085
 20
39.42582063820556
 10
390.395479994609
 20
39.41168316868689
 10
390.378311580549
 20
39.39679080280274
 10
390.3618162533805
 20
39.381171889018
 10
390.3460254128964
 20
39.36485615882279
 10
390.3309691178588
 20
39.34787467013685
 10
390.3166760287813
 20
39.33025974818906
 10
390.3031733533713
 20
39.31204492398451
 10
390.2904867947387
 20
39.29326487047635
 10
390.278640502469
 20
39.27395533656382
 10
390.267657026653
 20
39.25415307904219
 10
390.257557274961
 20
39.23389579263414
 10
390.2483604728444
 20
39.21322203823573
 10
390.2400841269387
 20
39.19217116951343
 10
390.2327439917389
 20
39.17078325799233
 10
390.2263540396092
 20
39.14909901677763
 10
390.2209264341871
 20
39.12715972305491
 10
390.2164715072278
 20
39.10500713951674
 10
390.2129977389378
 20
39.08268343486493
 10
390.2105117418327
 20
39.0602311035401
 10
390.2090182481493
 20
39.03769288483105
 10
390.2085201008376
 20
39.01511168151804
 10
390.2090182481493
 20
38.99253047820503
 10
390.2105117418327
 20
38.96999225949597
 10
390.2129977389378
 20
38.94753992817115
 10
390.2164715072278
 20
38.92521622351934
 10
390.2209264341871
 20
38.90306363998116
 10
390.2263540396092
 20
38.88112434625845
 10
390.2327439917389
 20
38.85944010504374
 10
390.2400841269387
 20
38.83805219352264
 10
390.2483604728444
 20
38.81700132480034
 10
390.257557274961
 20
38.79632757040193
 10
390.267657026653
 20
38.77607028399388
 10
390.278640502469
 20
38.75626802647226
 10
390.2904867947387
 20
38.73695849255972
 10
390.3031733533713
 20
38.71817843905156
 10
390.3166760287813
 20
38.69996361484701
 10
390.3309691178588
 20
38.68234869289923
 10
390.3460254128964
 20
38.66536720421328
 10
390.3618162533805
 20
38.64905147401807
 10
390.378311580549
 20
38.63343256023334
 10
390.395479994609
 20
38.61854019434918
 10
390.4132888145085
 20
38.60440272483051
 10
390.4317041401467
 20
38.59104706315406
 10
390.4506909169046
 20
38.57849863258093
 10
390.4702130023735
 20
38.56678131976191
 10
390.4902332351541
 20
38.55591742926793
 10
390.5107135055954
 20
38.545927641132
 10
390.5316148283387
 20
38.53683097148362
 10
390.5528974165281
 20
38.52864473635049
 10
390.5745207575475
 20
38.52138451869646
 10
390.5964436901381
 20
38.51506413875848
 10
390.6186244827519
 20
38.50969562773899
 10
390.6410209129892
 20
38.50528920490383
 10
390.6635903479724
 20
38.50185325812933
 10
390.6862898254991
 20
38.49939432793544
 10
390.7090761358237
 20
38.49791709503557
 97
        0
 75
     0
 76
     1
 98
        0
  0
MTEXT
  5
DD
330
1F
100
AcDbEntity
  8
XR$1$STANDARD
  6
AUSGEZOGEN
 62
     7
370
    35
100
AcDbMText
 10
390.731906
 20
39.832799
 30
0.0
 40
0.0875
 41
0.62125
 71
     5
 72
     5
  1
{\L\fCalibri|i0|b0;\H0.087500;\W1.000000;\C7;Draufsicht\l}\P
  7
CALIBRI
 73
     1
 44
1.0
  0
SPLINE
  5
DE
330
1F
100
AcDbEntity
  8
XR$1$STANDARD
  6
AUSGEZOGEN
 62
     7
370
    25
100
AcDbSpline
210
0.0
220
0.0
230
1.0
 70
     8
 71
     3
 72
    22
 73
    18
 74
    16
 42
0.0000000001
 43
0.0000000001
 44
0.0
 12
-0.7084721621818595
 22
-0.7057387586163599
 32
0.0
 13
0.9977938350382127
 23
-0.06638872464309388
 33
0.0
 40
0.0
 40
0.0
 40
0.0
 40
0.0
 40
0.0028283830716352
 40
0.0056255494111991
 40
0.0093204405884205
 40
0.0130253972922598
 40
0.0148845794447618
 40
0.0634111349526344
 40
0.1705785561800094
 40
0.2426745033163228
 40
0.3263423175297792
 40
0.4036197630950515
 40
0.4323001002401409
 40
0.4351539196887881
 40
0.437027780477911
 40
0.4389382684143685
 40
0.439843774639896
 40
0.439843774639896
 40
0.439843774639896
 40
0.439843774639896
 10
390.2040196234619
 20
40.89596967660055
 30
0.0
 10
390.2033516799052
 20
40.89530431008126
 30
0.0
 10
390.2020070395608
 20
40.89396351242914
 30
0.0
 10
390.2007152667224
 20
40.89107358750294
 30
0.0
 10
390.2003139513664
 20
40.88763688101097
 30
0.0
 10
390.2010755304555
 20
40.8845579005547
 30
0.0
 10
390.2102932504731
 20
40.86902661210247
 30
0.0
 10
390.2453589385225
 20
40.82951787694071
 30
0.0
 10
390.3005442037388
 20
40.7764755033769
 30
0.0
 10
390.3773692975388
 20
40.73358623199781
 30
0.0
 10
390.4436080486161
 20
40.69314243310343
 30
0.0
 10
390.4936118244868
 20
40.65379120063496
 30
0.0
 10
390.518822846569
 20
40.62785471031989
 30
0.0
 10
390.5274402812175
 20
40.62065395946138
 30
0.0
 10
390.5295232929556
 20
40.61983506600562
 30
0.0
 10
390.5310682482894
 20
40.61955504276872
 30
0.0
 10
390.5320050799713
 20
40.61949270475754
 30
0.0
 10
390.5323062494811
 20
40.61947266628972
 30
0.0
 11
390.2040196234619
 21
40.89596967660055
 31
0.0
 11
390.2021423907555
 21
40.89385408019158
 31
0.0
 11
390.2009592896326
 21
40.89131943795561
 31
0.0
 11
390.2005387074415
 21
40.88764856184329
 31
0.0
 11
390.2014448398044
 21
40.88405612140283
 31
0.0
 11
390.2023441334325
 21
40.88242890622141
 31
0.0
 11
390.2326055349852
 21
40.84449377520114
 31
0.0
 11
390.3122391825287
 21
40.77277670365294
 31
0.0
 11
390.3737228278755
 21
40.7351258477749
 31
0.0
 11
390.4445310881413
 21
40.69055575226924
 31
0.0
 11
390.5046230509534
 21
40.64196810364856
 31
0.0
 11
390.5254914502388
 21
40.62229396707231
 31
0.0
 11
390.5277892651363
 21
40.62060153327976
 31
0.0
 11
390.5295263037791
 21
40.61989864565679
 31
0.0
 11
390.5314035364856
 21
40.61954373507528
 31
0.0
 11
390.5323062494811
 21
40.61947266628972
 31
0.0
  0
SPLINE
  5
DF
330
1F
100
AcDbEntity
  8
XR$1$STANDARD
  6
AUSGEZOGEN
 62
     7
370
    25
100
AcDbSpline
210
0.0
220
0.0
230
1.0
 70
     8
 71
     3
 72
    41
 73
    37
 74
    35
 42
0.0000000001
 43
0.0000000001
 44
0.0
 12
0.9989401970701595
 22
0.04602697771341188
 32
0.0
 13
-0.7616805083089262
 23
-0.6479527785743769
 33
0.0
 40
0.0
 40
0.0
 40
0.0
 40
0.0
 40
0.0023792327570164
 40
0.0061295606226814
 40
0.0080175590822737
 40
0.0366963002152761
 40
0.0653226868793602
 40
0.0968041286906159
 40
0.2186914930473306
 40
0.2573955037925966
 40
0.3111373627242802
 40
0.3620992513023122
 40
0.4013742009874078
 40
0.4255941158267407
 40
0.4293074616339528
 40
0.4329890304481932
 40
0.4366815950842656
 40
0.4402328384253753
 40
0.4713698509525372
 40
0.5392850528987074
 40
0.5975907139135676
 40
0.6517404490740246
 40
0.7148480136553637
 40
0.7639992561218277
 40
0.8345769543010779
 40
0.9031637134717218
 40
0.9863095434826267
 40
1.045017534404404
 40
1.148594041613808
 40
1.188611478973293
 40
1.245051456782236
 40
1.304267359854407
 40
1.368575926402753
 40
1.475932755821365
 40
1.55876614683597
 40
1.612308771404827
 40
1.612308771404827
 40
1.612308771404827
 40
1.612308771404827
 10
390.9181852807377
 20
40.61947266628972
 30
0.0
 10
390.9189775178174
 20
40.61950916925408
 30
0.0
 10
390.9210229105321
 20
40.61960333208509
 30
0.0
 10
390.9236073061801
 20
40.62062969987152
 30
0.0
 10
390.9322116868477
 20
40.62819939827269
 30
0.0
 10
390.9460754665932
 20
40.64223850773735
 30
0.0
 10
390.9685389352828
 20
40.66154149528808
 30
0.0
 10
391.015964835601
 20
40.69944488524974
 30
0.0
 10
391.0720132839604
 20
40.73094922398591
 30
0.0
 10
391.1333206685296
 20
40.7676809645229
 30
0.0
 10
391.1711095773903
 20
40.79715948570873
 30
0.0
 10
391.2061507008074
 20
40.83013471771565
 30
0.0
 10
391.2306505209197
 20
40.85934824184216
 30
0.0
 10
391.2454674747834
 20
40.87627830826649
 30
0.0
 10
391.2504019300212
 20
40.88572494849664
 30
0.0
 10
391.2506727762731
 20
40.88951479471268
 30
0.0
 10
391.2495682818803
 20
40.89309754279401
 30
0.0
 10
391.2411310071481
 20
40.9028902909459
 30
0.0
 10
391.2132406104683
 20
40.92293729068259
 30
0.0
 10
391.1739748668585
 20
40.95769610816119
 30
0.0
 10
391.1261844929983
 20
40.99425996995397
 30
0.0
 10
391.0786213246674
 20
41.02832139528081
 30
0.0
 10
391.0323655853865
 20
41.05910879811833
 30
0.0
 10
390.9773193036449
 20
41.08574614764715
 30
0.0
 10
390.9167809852588
 20
41.10334927677815
 30
0.0
 10
390.8437824381761
 20
41.1164742403101
 30
0.0
 10
390.773756042455
 20
41.12230076073297
 30
0.0
 10
390.6919278199956
 20
41.12334272285398
 30
0.0
 10
390.6244940351698
 20
41.1184151924359
 30
0.0
 10
390.5586080737958
 20
41.1079678886385
 30
0.0
 10
390.5080408906352
 20
41.09619531217547
 30
0.0
 10
390.4509180371666
 20
41.076909138222
 30
0.0
 10
390.3844300847691
 20
41.03748473813538
 30
0.0
 10
390.3154819418405
 20
40.98804301631744
 30
0.0
 10
390.252237438188
 20
40.93698797618543
 30
0.0
 10
390.2176137479612
 20
40.90753404072107
 30
0.0
 10
390.2040196234619
 20
40.89596967660055
 30
0.0
 11
390.9181852807377
 21
40.61947266628972
 31
0.0
 11
390.9205549023508
 21
40.61968630599263
 31
0.0
 11
390.9240289796364
 21
40.62109901477863
 31
0.0
 11
390.9254924688866
 21
40.62229180034104
 31
0.0
 11
390.9463574488047
 21
40.64196723695606
 31
0.0
 11
390.9679199796737
 21
40.66079613166512
 31
0.0
 11
390.9926078123528
 21
40.68033051407465
 31
0.0
 11
391.0957530301874
 21
40.74527351699013
 31
0.0
 11
391.1286541833784
 21
40.76565769140254
 31
0.0
 11
391.1712868562099
 21
40.79837836695597
 31
0.0
 11
391.2081510562256
 21
40.83356564938359
 31
0.0
 11
391.2340288287625
 21
40.86310989689979
 31
0.0
 11
391.2486363663255
 21
40.88242890622141
 31
0.0
 11
391.2501614041891
 21
40.88581464049901
 31
0.0
 11
391.2504417923165
 21
40.88948551661134
 31
0.0
 11
391.2493304979092
 21
40.89300688826624
 31
0.0
 11
391.2471762964427
 21
40.89583013910697
 31
0.0
 11
391.2234561447398
 21
40.91600110716271
 31
0.0
 11
391.1710133068173
 21
40.95915459376609
 31
0.0
 11
391.1249031373328
 21
40.99483935769259
 31
0.0
 11
391.0808719432318
 21
41.02635836408541
 31
0.0
 11
391.0276665863777
 21
41.06029587591832
 31
0.0
 11
390.9833584235167
 21
41.08157101022766
 31
0.0
 11
390.9158943045749
 21
41.10230272833527
 31
0.0
 11
390.8484267662658
 21
41.11464269624631
 31
0.0
 11
390.7655925908293
 21
41.12183494401354
 31
0.0
 11
390.7068888911845
 21
41.12254476517657
 31
0.0
 11
390.6036034792862
 21
41.11478483381742
 31
0.0
 11
390.5640926888973
 21
41.10843717789801
 31
0.0
 11
390.5091468740329
 21
41.09553645993511
 31
0.0
 11
390.4533701528886
 21
41.07564976702157
 31
0.0
 11
390.3972378175339
 21
41.04426899808357
 31
0.0
 11
390.3095310435423
 21
40.98235768555669
 31
0.0
 11
390.2449186770181
 21
40.93052514019076
 31
0.0
 11
390.2040196234619
 21
40.89596967660055
 31
0.0
  0
SPLINE
  5
E0
330
1F
100
AcDbEntity
  8
XR$1$STANDARD
  6
AUSGEZOGEN
 62
     7
370
    25
100
AcDbSpline
210
0.0
220
0.0
230
1.0
 70
     8
 71
     3
 72
    20
 73
    16
 74
    14
 42
0.0000000001
 43
0.0000000001
 44
0.0
 12
-0.8990218723060394
 22
-0.4379037258523194
 32
0.0
 13
0.9374231728358091
 23
-0.3481921811736229
 33
0.0
 40
0.0
 40
0.0
 40
0.0
 40
0.0
 40
0.0549826123696113
 40
0.0744122252705025
 40
0.0923137488998584
 40
0.1018939606200403
 40
0.1109538568457646
 40
0.1194278368153694
 40
0.1275591712831312
 40
0.1436478763839418
 40
0.1690727443289256
 40
0.1878914017271267
 40
0.2323111657241463
 40
0.2762779994846593
 40
0.3123051286457486
 40
0.3123051286457486
 40
0.3123051286457486
 40
0.3123051286457486
 10
390.4533701528886
 20
41.07564976702157
 30
0.0
 10
390.4368932958496
 20
41.06762407008365
 30
0.0
 10
390.4143511299159
 20
41.05663508670439
 30
0.0
 10
390.3906046969355
 20
41.03693347132508
 30
0.0
 10
390.3798194684584
 20
41.02551084713713
 30
0.0
 10
390.3729240340166
 20
41.01544320629087
 30
0.0
 10
390.3685480121339
 20
41.00751211496972
 30
0.0
 10
390.3654563681988
 20
40.99950719553942
 30
0.0
 10
390.3628005680137
 20
40.98891359568719
 30
0.0
 10
390.3622622053014
 20
40.9721145338688
 30
0.0
 10
390.3692862015362
 20
40.95264276778461
 30
0.0
 10
390.3866962403177
 20
40.92857400396991
 30
0.0
 10
390.4154108937548
 20
40.90631659945853
 30
0.0
 10
390.4521987848639
 20
40.88702946991958
 30
0.0
 10
390.4772329202846
 20
40.87772979634572
 30
0.0
 10
390.4884904755267
 20
40.87354834145104
 30
0.0
 11
390.4533701528886
 21
41.07564976702157
 31
0.0
 11
390.4054374605761
 21
41.04871383060441
 31
0.0
 11
390.3904879862724
 21
41.03630322725407
 31
0.0
 11
390.3783868450187
 21
41.0231113006089
 31
0.0
 11
390.3729603089437
 21
41.01521616521869
 31
0.0
 11
390.3686450672759
 21
41.00724996104294
 31
0.0
 11
390.3655847334466
 21
40.99934789211269
 31
0.0
 11
390.363639113392
 21
40.99145275672249
 31
0.0
 11
390.3631569825876
 21
40.97537127725982
 31
0.0
 11
390.3712232703008
 21
40.95125989172215
 31
0.0
 11
390.3820695037161
 21
40.93588129988245
 31
0.0
 11
390.4161537580299
 21
40.90739658395574
 31
0.0
 11
390.4549635781003
 21
40.88673550128743
 31
0.0
 11
390.4884904755267
 21
40.87354834145104
 31
0.0
  0
SPLINE
  5
E1
330
1F
100
AcDbEntity
  8
XR$1$STANDARD
  6
AUSGEZOGEN
 62
     7
370
    25
100
AcDbSpline
210
0.0
220
0.0
230
1.0
 70
     8
 71
     3
 72
    19
 73
    15
 74
    13
 42
0.0000000001
 43
0.0000000001
 44
0.0
 12
0.9113050063622845
 22
-0.411731933883002
 32
0.0
 13
0.919921780966735
 23
0.3921019215752332
 33
0.0
 40
0.0
 40
0.0
 40
0.0
 40
0.0
 40
0.015293021606449
 40
0.063304816112184
 40
0.0964268619799169
 40
0.1292902705581445
 40
0.17759286312143
 40
0.2106117414206522
 40
0.2439460672283173
 40
0.2937125406978854
 40
0.3426002876633554
 40
0.3913790352346532
 40
0.4404343721957771
 40
0.4877938759574933
 40
0.4877938759574933
 40
0.4877938759574933
 40
0.4877938759574933
 10
390.4884904755267
 20
40.87354400798851
 30
0.0
 10
390.4931360112441
 20
40.8714451328682
 30
0.0
 10
390.5123679547921
 20
40.86275588019073
 30
0.0
 10
390.5427279509505
 20
40.85196798013202
 30
0.0
 10
390.57939007869
 20
40.84194318275747
 30
0.0
 10
390.6165670705317
 20
40.83356780176336
 30
0.0
 10
390.6541958039414
 20
40.8275432019656
 30
0.0
 10
390.6922969552539
 20
40.82427224112607
 30
0.0
 10
390.7310076604468
 20
40.82325616007408
 30
0.0
 10
390.7750242607322
 20
40.82496552355394
 30
0.0
 10
390.8238297370166
 20
40.83132744884612
 30
0.0
 10
390.8716390308363
 20
40.84173027571487
 30
0.0
 10
390.9183561069755
 20
40.85473180091848
 30
0.0
 10
390.94797109725
 20
40.86735625724317
 30
0.0
 10
390.9624934435987
 20
40.87354617471977
 30
0.0
 11
390.4884904755267
 21
40.87354400798851
 31
0.0
 11
390.5024688494869
 21
40.86734065637147
 31
0.0
 11
390.5476079186278
 21
40.8509822686529
 31
0.0
 11
390.5795345521077
 21
40.84216410574301
 31
0.0
 11
390.6116013796513
 21
40.83497229132204
 31
0.0
 11
390.6593118130823
 21
40.82743206651335
 31
0.0
 11
390.6922095469059
 21
40.82460621559511
 31
0.0
 11
390.7255312822879
 21
40.82369012161547
 31
0.0
 11
390.7752557231217
 21
40.82573508258514
 31
0.0
 11
390.8237389335867
 21
40.83201123637274
 31
0.0
 11
390.8714493670177
 21
40.84216410574301
 31
0.0
 11
390.9185374755806
 21
40.85591678244006
 31
0.0
 11
390.9624934435987
 21
40.87354617471977
 31
0.0
  0
SPLINE
  5
E2
330
1F
100
AcDbEntity
  8
XR$1$STANDARD
  6
AUSGEZOGEN
 62
     7
370
    25
100
AcDbSpline
210
0.0
220
0.0
230
1.0
 70
     8
 71
     3
 72
    18
 73
    14
 74
    12
 42
0.0000000001
 43
0.0000000001
 44
0.0
 12
0.9377925235191269
 22
0.3471961734115564
 32
0.0
 13
-0.8520294059176913
 23
0.523493926852591
 33
0.0
 40
0.0
 40
0.0
 40
0.0
 40
0.0
 40
0.0360874379397553
 40
0.0799937135707123
 40
0.1142977952238065
 40
0.1341620828437447
 40
0.1519478852711416
 40
0.1769168303771972
 40
0.2013188048901441
 40
0.2199370141277186
 40
0.2377869380095002
 40
0.2572718542007563
 40
0.278571135258828
 40
0.278571135258828
 40
0.278571135258828
 40
0.278571135258828
 10
390.9624934435987
 20
40.87354617471977
 30
0.0
 10
390.973774286763
 20
40.87772264817341
 30
0.0
 10
390.9988039593212
 20
40.8869902091479
 30
0.0
 10
391.0326563866513
 20
40.90478518796048
 30
0.0
 10
391.0590236740924
 20
40.92448455005316
 30
0.0
 10
391.0749847843678
 20
40.94256636277018
 30
0.0
 10
391.0855424341362
 20
40.96074151187532
 30
0.0
 10
391.0901082280525
 20
40.98344397826359
 30
0.0
 10
391.0840998746174
 20
41.005991431133
 30
0.0
 10
391.0731938825907
 20
41.02326599910499
 30
0.0
 10
391.0604458936349
 20
41.03697652886179
 30
0.0
 10
391.0453179037831
 20
41.049449788603
 30
0.0
 10
391.0337157909731
 20
41.05657919449158
 30
0.0
 10
391.0276665863777
 20
41.06029587591832
 30
0.0
 11
390.9624934435987
 21
40.87354617471977
 31
0.0
 11
390.9960853090058
 21
40.88673290120991
 31
0.0
 11
391.0348267417281
 21
40.90739355053197
 31
0.0
 11
391.0618841960203
 21
40.92848061256734
 31
0.0
 11
391.0748880502695
 21
40.94349692693923
 31
0.0
 11
391.0835869209531
 21
40.95901028946373
 31
0.0
 11
391.088172292646
 21
40.98355458790851
 31
0.0
 11
391.0823320131146
 21
41.00724736096542
 31
0.0
 11
391.0725936547393
 21
41.02311563407142
 31
0.0
 11
391.0605609008338
 21
41.0363001938303
 31
0.0
 11
391.0455396198145
 21
41.04871079718064
 31
0.0
 11
391.0276665863777
 21
41.06029587591832
 31
0.0
  0
SPLINE
  5
E3
330
1F
100
AcDbEntity
  8
XR$1$STANDARD
  6
AUSGEZOGEN
 62
     7
370
    25
100
AcDbSpline
210
0.0
220
0.0
230
1.0
 70
     8
 71
     3
 72
    25
 73
    21
 74
    19
 42
0.0000000001
 43
0.0000000001
 44
0.0
 12
0.8776681043931213
 22
0.479268920889917
 32
0.0
 13
0.8803284328443504
 23
-0.474364680731829
 33
0.0
 40
0.0
 40
0.0
 40
0.0
 40
0.0
 40
0.0022185559661934
 40
0.0042404792858376
 40
0.0051881048571354
 40
0.0144151241142341
 40
0.0429048448508162
 40
0.0894909780594821
 40
0.1287254780061564
 40
0.1705462074715713
 40
0.2438160376570944
 40
0.3111464209350173
 40
0.3713074571150304
 40
0.4095324887995804
 40
0.4440024674696881
 40
0.4729922771929489
 40
0.4823762329891961
 40
0.4833225188431131
 40
0.4853449465580542
 40
0.4875642777403862
 40
0.4875642777403862
 40
0.4875642777403862
 40
0.4875642777403862
 10
390.4884904755267
 20
40.87354400798851
 30
0.0
 10
390.4891395274631
 20
40.87389843629646
 30
0.0
 10
390.4903867320444
 20
40.87458050499137
 30
0.0
 10
390.4921957509957
 20
40.87476644844596
 30
0.0
 10
390.4960497267712
 20
40.8734038537894
 30
0.0
 10
390.5073595983959
 20
40.86717467143481
 30
0.0
 10
390.5337489710552
 20
40.85727554187896
 30
0.0
 10
390.5701004332583
 20
40.84580438780159
 30
0.0
 10
390.6117494082995
 20
40.83686045601955
 30
0.0
 10
390.662674874212
 20
40.82933098606758
 30
0.0
 10
390.7235482290739
 20
40.82654931728116
 30
0.0
 10
390.7905113952046
 20
40.82933930783263
 30
0.0
 10
390.8452135591061
 20
40.83773106792567
 30
0.0
 10
390.8883286626665
 20
40.84806369572455
 30
0.0
 10
390.9205535740609
 20
40.85854370553395
 30
0.0
 10
390.9433788154328
 20
40.86707578205219
 30
0.0
 10
390.9548920200369
 20
40.8733571387062
 30
0.0
 10
390.9587840497755
 20
40.87477833258483
 30
0.0
 10
390.9605939009513
 20
40.87457288610977
 30
0.0
 10
390.9618421968181
 20
40.87389926556029
 30
0.0
 10
390.9624934435987
 20
40.87354834145104
 30
0.0
 11
390.4884904755267
 21
40.87354400798851
 31
0.0
 11
390.4905079022969
 21
40.87446703550819
 31
0.0
 11
390.4925253290671
 21
40.87460180619298
 31
0.0
 11
390.49343146143
 21
40.87432446459083
 31
0.0
 11
390.5017712985359
 21
40.87037668022261
 31
0.0
 11
390.5281380406119
 21
40.85958505847486
 31
0.0
 11
390.5726479461499
 21
40.84583238177782
 31
0.0
 11
390.6109756354158
 21
40.83744583173629
 31
0.0
 11
390.6523534004089
 21
40.83137508407278
 31
0.0
 11
390.7255244435531
 21
40.82757160400693
 31
0.0
 11
390.792779981083
 21
40.83074543196663
 31
0.0
 11
390.8522496190269
 21
40.83984006978617
 31
0.0
 11
390.8893942071701
 21
40.84886407216641
 31
0.0
 11
390.9222235536455
 21
40.85937185211819
 31
0.0
 11
390.9490724265259
 21
40.87030561143705
 31
0.0
 11
390.9575524576954
 21
40.87432403124458
 31
0.0
 11
390.9584551706909
 21
40.87460787304054
 31
0.0
 11
390.9604725974611
 21
40.87446573546943
 31
0.0
 11
390.9624934435987
 21
40.87354834145104
 31
0.0
  0
SPLINE
  5
E4
330
1F
100
AcDbEntity
  8
XR$1$STANDARD
  6
AUSGEZOGEN
 62
     7
370
    25
100
AcDbSpline
210
0.0
220
0.0
230
1.0
 70
     8
 71
     3
 72
    38
 73
    34
 74
    32
 42
0.0000000001
 43
0.0000000001
 44
0.0
 12
0.9401765310832937
 22
0.3406876728033825
 32
0.0
 13
0.9407645211319051
 23
-0.3390606373194287
 33
0.0
 40
0.0
 40
0.0
 40
0.0
 40
0.0
 40
0.0154283592476067
 40
0.070511185028893
 40
0.1095313528235499
 40
0.1388182082608127
 40
0.1559418236723408
 40
0.1718342422292797
 40
0.1967280856727355
 40
0.2145896148679625
 40
0.2395523248788173
 40
0.2630677658309174
 40
0.3283787735785821
 40
0.3792320007742512
 40
0.4578217283188129
 40
0.5111127381125635
 40
0.5738835920224711
 40
0.6575608568257134
 40
0.7059374542824802
 40
0.7686231201223591
 40
0.8077221302836494
 40
0.8589385145257743
 40
0.9082993814168729
 40
0.933264713454919
 40
0.9595916413120953
 40
0.976051709591557
 40
0.9919521368145265
 40
1.009044416877634
 40
1.038373489565753
 40
1.073002808572241
 40
1.106551346784336
 40
1.134062729255635
 40
1.14792491488548
 40
1.14792491488548
 40
1.14792491488548
 40
1.14792491488548
 10
390.9575524576954
 20
40.87432403124458
 30
0.0
 10
390.962387584788
 20
40.87607611518033
 30
0.0
 10
390.9844796353696
 20
40.88408147219528
 30
0.0
 10
391.017642596835
 20
40.89991447471472
 30
0.0
 10
391.0507911817066
 20
40.92480525357936
 30
0.0
 10
391.0686500616617
 20
40.94752697438786
 30
0.0
 10
391.0765642085007
 20
40.96695489980853
 30
0.0
 10
391.0787936636936
 20
40.98638305548589
 30
0.0
 10
391.0737049975341
 20
41.00589754666164
 30
0.0
 10
391.0616057349039
 20
41.0251181410827
 30
0.0
 10
391.0458973379654
 20
41.04094178029354
 30
0.0
 10
391.0151276002321
 20
41.06326256483413
 30
0.0
 10
390.9722759730842
 20
41.08267197767672
 30
0.0
 10
390.909993594828
 20
41.10108865674157
 30
0.0
 10
390.8497907829852
 20
41.11154015739645
 30
0.0
 10
390.7851446409496
 20
41.11725271210282
 30
0.0
 10
390.7185638582372
 20
41.11962344696998
 30
0.0
 10
390.6535856757202
 20
41.11678621416422
 30
0.0
 10
390.5890604597384
 20
41.1095413853115
 30
0.0
 10
390.5397582074195
 20
41.10035883791809
 30
0.0
 10
390.4906952245902
 20
41.08625771572366
 30
0.0
 10
390.4472832169346
 20
41.06916771295082
 30
0.0
 10
390.4112068765007
 20
41.04705065804262
 30
0.0
 10
390.3873950768539
 20
41.02315080259616
 30
0.0
 10
390.3759867155921
 20
41.00308068481513
 30
0.0
 10
390.3725069367029
 20
40.98354644024709
 30
0.0
 10
390.3745289304148
 20
40.96697247751926
 30
0.0
 10
390.3822914537017
 20
40.94748288232922
 30
0.0
 10
390.3993813641196
 20
40.92602180148145
 30
0.0
 10
390.4250716266182
 20
40.90579068308926
 30
0.0
 10
390.4531789095259
 20
40.89052273963645
 30
0.0
 10
390.4761078672413
 20
40.88056814305585
 30
0.0
 10
390.4890844439547
 20
40.8758911717556
 30
0.0
 10
390.49343146143
 20
40.87432446459083
 30
0.0
 11
390.9575524576954
 21
40.87432403124458
 31
0.0
 11
390.9720198011948
 21
40.87968409105255
 31
0.0
 11
391.0214057246553
 21
40.90407975173243
 31
0.0
 11
391.0520774502968
 21
40.92820067088768
 31
0.0
 11
391.069676934341
 21
40.95160960214862
 31
0.0
 11
391.075934376696
 21
40.96754894404018
 31
0.0
 11
391.0776714153388
 21
40.98334614836064
 31
0.0
 11
391.0717627484594
 21
41.00752860268386
 31
0.0
 11
391.0624415529077
 21
41.02276505695245
 31
0.0
 11
391.0451224569908
 21
41.04074242627362
 31
0.0
 11
391.0262030971274
 21
41.05470787598107
 31
0.0
 11
390.9673626227864
 21
41.08305088768293
 31
0.0
 11
390.9186708309095
 21
41.09771922501334
 31
0.0
 11
390.8413315788961
 21
41.11168294133579
 31
0.0
 11
390.7882629967382
 21
41.11654681968364
 31
0.0
 11
390.7255278629205
 21
41.11866414947762
 31
0.0
 11
390.6419277491847
 21
41.11507170903715
 31
0.0
 11
390.5938651209108
 21
41.10956907831183
 31
0.0
 11
390.5323096688485
 21
41.09771922501334
 31
0.0
 11
390.4947479178817
 21
41.0868634680201
 31
0.0
 11
390.447317872578
 21
41.06753709181218
 31
0.0
 11
390.4058614621346
 21
41.04074415965864
 31
0.0
 11
390.3885457855851
 21
41.02275985679741
 31
0.0
 11
390.3760924494885
 21
40.99956456523937
 31
0.0
 11
390.3733125037866
 21
40.98334094820559
 31
0.0
 11
390.375121349145
 21
40.96754374388514
 31
0.0
 11
390.3813104041517
 21
40.95161133553363
 31
0.0
 11
390.3989714368093
 21
40.92819590407888
 31
0.0
 11
390.4258886970379
 21
40.90640942119055
 31
0.0
 11
390.455178998247
 21
40.89005146681824
 31
0.0
 11
390.4804241878134
 21
40.87911727415313
 31
0.0
 11
390.49343146143
 21
40.87432446459083
 31
0.0
  0
LINE
  5
E5
330
1F
100
AcDbEntity
  8
XR$1$STANDARD
  6
AUSGEZOGEN
 62
     7
370
    25
100
AcDbLine
 10
390.532306
 20
40.619473
 30
0.0
 11
390.918185
 21
40.619473
 31
0.0
  0
LINE
  5
E6
330
1F
100
AcDbEntity
  8
XR$1$STANDARD
  6
AUSGEZOGEN
 62
     7
370
    25
100
AcDbLine
 10
390.401136
 20
40.433661
 30
0.0
 11
390.369558
 21
40.433661
 31
0.0
  0
LINE
  5
E7
330
1F
100
AcDbEntity
  8
XR$1$STANDARD
  6
AUSGEZOGEN
 62
     7
370
    25
100
AcDbLine
 10
390.369558
 20
40.433661
 30
0.0
 11
390.369558
 21
40.425693
 31
0.0
  0
LINE
  5
E8
330
1F
100
AcDbEntity
  8
XR$1$STANDARD
  6
AUSGEZOGEN
 62
     7
370
    25
100
AcDbLine
 10
390.369558
 20
40.425693
 30
0.0
 11
390.401136
 21
40.425693
 31
0.0
  0
LINE
  5
E9
330
1F
100
AcDbEntity
  8
XR$1$STANDARD
  6
AUSGEZOGEN
 62
     7
370
    25
100
AcDbLine
 10
390.401136
 20
40.425693
 30
0.0
 11
390.401136
 21
40.433661
 31
0.0
  0
LINE
  5
EA
330
1F
100
AcDbEntity
  8
XR$1$STANDARD
  6
AUSGEZOGEN
 62
     7
370
    25
100
AcDbLine
 10
390.360719
 20
40.410389
 30
0.0
 11
390.409965
 21
40.410389
 31
0.0
  0
LINE
  5
EB
330
1F
100
AcDbEntity
  8
XR$1$STANDARD
  6
AUSGEZOGEN
 62
     7
370
    25
100
AcDbLine
 10
390.409965
 20
40.410389
 30
0.0
 11
390.409965
 21
40.40623
 31
0.0
  0
LINE
  5
EC
330
1F
100
AcDbEntity
  8
XR$1$STANDARD
  6
AUSGEZOGEN
 62
     7
370
    25
100
AcDbLine
 10
390.409965
 20
40.40623
 30
0.0
 11
390.360719
 21
40.40623
 31
0.0
  0
LINE
  5
ED
330
1F
100
AcDbEntity
  8
XR$1$STANDARD
  6
AUSGEZOGEN
 62
     7
370
    25
100
AcDbLine
 10
390.360719
 20
40.40623
 30
0.0
 11
390.360719
 21
40.410389
 31
0.0
  0
LINE
  5
EE
330
1F
100
AcDbEntity
  8
XR$1$STANDARD
  6
AUSGEZOGEN
 62
     7
370
    25
100
AcDbLine
 10
390.405304
 20
40.405668
 30
0.0
 11
390.365383
 21
40.405668
 31
0.0
  0
LINE
  5
EF
330
1F
100
AcDbEntity
  8
XR$1$STANDARD
  6
AUSGEZOGEN
 62
     7
370
    25
100
AcDbLine
 10
390.365383
 20
40.405668
 30
0.0
 11
390.365383
 21
40.403694
 31
0.0
  0
LINE
  5
F0
330
1F
100
AcDbEntity
  8
XR$1$STANDARD
  6
AUSGEZOGEN
 62
     7
370
    25
100
AcDbLine
 10
390.365383
 20
40.403694
 30
0.0
 11
390.405304
 21
40.403694
 31
0.0
  0
LINE
  5
F1
330
1F
100
AcDbEntity
  8
XR$1$STANDARD
  6
AUSGEZOGEN
 62
     7
370
    25
100
AcDbLine
 10
390.405304
 20
40.403694
 30
0.0
 11
390.405304
 21
40.405668
 31
0.0
  0
LINE
  5
F2
330
1F
100
AcDbEntity
  8
XR$1$STANDARD
  6
AUSGEZOGEN
 62
     7
370
    25
100
AcDbLine
 10
390.360722
 20
40.41039
 30
0.0
 11
390.360928
 21
40.410815
 31
0.0
  0
LINE
  5
F3
330
1F
100
AcDbEntity
  8
XR$1$STANDARD
  6
AUSGEZOGEN
 62
     7
370
    25
100
AcDbLine
 10
390.360928
 20
40.410815
 30
0.0
 11
390.376441
 21
40.425692
 31
0.0
  0
LINE
  5
F4
330
1F
100
AcDbEntity
  8
XR$1$STANDARD
  6
AUSGEZOGEN
 62
     7
370
    25
100
AcDbLine
 10
390.394242
 20
40.425692
 30
0.0
 11
390.409753
 21
40.410815
 31
0.0
  0
LINE
  5
F5
330
1F
100
AcDbEntity
  8
XR$1$STANDARD
  6
AUSGEZOGEN
 62
     7
370
    25
100
AcDbLine
 10
390.409753
 20
40.410815
 30
0.0
 11
390.409961
 21
40.410389
 31
0.0
  0
LINE
  5
F6
330
1F
100
AcDbEntity
  8
XR$1$STANDARD
  6
AUSGEZOGEN
 62
     7
370
    25
100
AcDbLine
 10
390.360928
 20
40.410815
 30
0.0
 11
390.409753
 21
40.410815
 31
0.0
  0
LINE
  5
F7
330
1F
100
AcDbEntity
  8
XR$1$STANDARD
  6
AUSGEZOGEN
 62
     7
370
    25
100
AcDbLine
 10
390.361208
 20
40.405665
 30
0.0
 11
390.409479
 21
40.405665
 31
0.0
  0
LINE
  5
F8
330
1F
100
AcDbEntity
  8
XR$1$STANDARD
  6
AUSGEZOGEN
 62
     7
370
    25
100
AcDbLine
 10
390.409479
 20
40.405665
 30
0.0
 11
390.409965
 21
40.40623
 31
0.0
  0
LINE
  5
F9
330
1F
100
AcDbEntity
  8
XR$1$STANDARD
  6
AUSGEZOGEN
 62
     7
370
    25
100
AcDbLine
 10
390.360719
 20
40.40623
 30
0.0
 11
390.361208
 21
40.405665
 31
0.0
  0
LINE
  5
FA
330
1F
100
AcDbEntity
  8
XR$1$STANDARD
  6
AUSGEZOGEN
 62
     7
370
    25
100
AcDbLine
 10
390.365383
 20
40.403694
 30
0.0
 11
390.366354
 21
40.402704
 31
0.0
  0
LINE
  5
FB
330
1F
100
AcDbEntity
  8
XR$1$STANDARD
  6
AUSGEZOGEN
 62
     7
370
    25
100
AcDbLine
 10
390.366354
 20
40.402704
 30
0.0
 11
390.404333
 21
40.402704
 31
0.0
  0
LINE
  5
FC
330
1F
100
AcDbEntity
  8
XR$1$STANDARD
  6
AUSGEZOGEN
 62
     7
370
    25
100
AcDbLine
 10
390.404333
 20
40.402704
 30
0.0
 11
390.405304
 21
40.403694
 31
0.0
  0
SPLINE
  5
FD
330
1F
100
AcDbEntity
  8
XR$1$STANDARD
  6
AUSGEZOGEN
 62
     7
370
    25
100
AcDbSpline
210
0.0
220
0.0
230
1.0
 70
     8
 71
     3
 72
    14
 73
    10
 74
     8
 42
0.0000000001
 43
0.0000000001
 44
0.0
 12
-0.8588094132118176
 22
-0.5122952193596709
 32
0.0
 13
0.004070047379823827
 23
-0.9999917173228616
 33
0.0
 40
0.0
 40
0.0
 40
0.0
 40
0.0
 40
0.0160936058636887
 40
0.0350355596806708
 40
0.0501468473704167
 40
0.0711906516940874
 40
0.0874820658963165
 40
0.1040412474509333
 40
0.1063700502165512
 40
0.1063700502165512
 40
0.1063700502165512
 40
0.1063700502165512
 10
390.4161537580299
 20
40.5237152779894
 30
0.0
 10
390.4115466446272
 20
40.52096705220733
 30
0.0
 10
390.4014442552158
 20
40.51493646066204
 30
0.0
 10
390.3901767869091
 20
40.50224770031981
 30
0.0
 10
390.3806530825059
 20
40.48650559229861
 30
0.0
 10
390.3742945962699
 20
40.47007416021838
 30
0.0
 10
390.3706393205264
 20
40.45245341707822
 30
0.0
 10
390.3695258373791
 20
40.44073457921871
 30
0.0
 10
390.3695514595604
 20
40.43443828758121
 30
0.0
 10
390.3695546190062
 20
40.43366202642224
 30
0.0
 11
390.4161537580299
 21
40.5237152779894
 31
0.0
 11
390.4027361603245
 21
40.51482864637148
 31
0.0
 11
390.3898622420369
 21
40.50093404877646
 31
0.0
 11
390.3820045357354
 21
40.4880263972735
 31
0.0
 11
390.3743519914784
 21
40.4684233294828
 31
0.0
 11
390.3709497209083
 21
40.45249113780442
 31
0.0
 11
390.3695546190062
 21
40.43599082918786
 31
0.0
 11
390.3695546190062
 21
40.43366202642224
 31
0.0
  0
SPLINE
  5
FE
330
1F
100
AcDbEntity
  8
XR$1$STANDARD
  6
AUSGEZOGEN
 62
     7
370
    25
100
AcDbSpline
210
0.0
220
0.0
230
1.0
 70
     8
 71
     3
 72
    13
 73
     9
 74
     7
 42
0.0000000001
 43
0.0000000001
 44
0.0
 12
0.03155087234232355
 22
0.999502147298563
 32
0.0
 13
0.8648315923059472
 23
0.5020620648381631
 33
0.0
 40
0.0
 40
0.0
 40
0.0
 40
0.0
 40
0.0111569686486058
 40
0.0241403550702944
 40
0.0404440602463783
 40
0.0548406208273954
 40
0.0641988502890333
 40
0.0706882336907055
 40
0.0706882336907055
 40
0.0706882336907055
 40
0.0706882336907055
 10
390.401135896378
 20
40.43366115972973
 30
0.0
 10
390.4012532337426
 20
40.43737829777027
 30
0.0
 10
390.401507478377
 20
40.44543767386642
 30
0.0
 10
390.4040509904331
 20
40.45872711953567
 30
0.0
 10
390.4089403802938
 20
40.47255437058229
 30
0.0
 10
390.416210538708
 20
40.48388696554662
 30
0.0
 10
390.4233941848307
 20
40.49111755797451
 30
0.0
 10
390.42798442197
 20
40.49378356022358
 30
0.0
 10
390.4298551632301
 20
40.49486958463364
 30
0.0
 11
390.401135896378
 21
40.43366115972973
 31
0.0
 11
390.4017582212462
 21
40.44480075851894
 31
0.0
 11
390.4041244234919
 21
40.45756670579704
 31
0.0
 11
390.4097561216113
 21
40.47286686196488
 31
0.0
 11
390.4176138279127
 21
40.48492992162002
 31
0.0
 11
390.4243636591743
 21
40.49141191487798
 31
0.0
 11
390.4298551632301
 21
40.49486958463364
 31
0.0
  0
SPLINE
  5
FF
330
1F
100
AcDbEntity
  8
XR$1$STANDARD
  6
AUSGEZOGEN
 62
     7
370
    25
100
AcDbSpline
210
0.0
220
0.0
230
1.0
 70
     8
 71
     3
 72
    26
 73
    22
 74
    20
 42
0.0000000001
 43
0.0000000001
 44
0.0
 12
0.8615451529580228
 22
0.5076809523849963
 32
0.0
 13
0.9264913332544287
 23
-0.3763161030363053
 33
0.0
 40
0.0
 40
0.0
 40
0.0
 40
0.0
 40
0.000155352563257
 40
0.0007170592286477
 40
0.0213412723275039
 40
0.0428936820637544
 40
0.1355336737614966
 40
0.3089412960348923
 40
0.4031114471462971
 40
0.4555839988076803
 40
0.5284655040426254
 40
0.5771060088014909
 40
0.6188328678845483
 40
0.7076966708431852
 40
0.8403701308273728
 40
0.9613319095721669
 40
1.051398949290768
 40
1.05430338693343
 40
1.056134366915685
 40
1.056695143170443
 40
1.056916351910693
 40
1.056916351910693
 40
1.056916351910693
 40
1.056916351910693
 10
390.2038828487657
 20
40.89583013910697
 30
0.0
 10
390.2039274631817
 20
40.89585642895273
 30
0.0
 10
390.2041359186204
 20
40.89597935666301
 30
0.0
 10
390.2115038922398
 20
40.89590572452506
 30
0.0
 10
390.2250361072439
 20
40.89183266644463
 30
0.0
 10
390.2696264723264
 20
40.88503520050394
 30
0.0
 10
390.3636172347338
 20
40.86690591420076
 30
0.0
 10
390.4820227622239
 20
40.84657217364648
 30
0.0
 10
390.5867221406364
 20
40.82589616381874
 30
0.0
 10
390.6594139189685
 20
40.81707619487241
 30
0.0
 10
390.7174505827608
 20
40.81466220203191
 30
0.0
 10
390.7718587775352
 20
40.81630127195052
 30
0.0
 10
390.8314665901926
 20
40.82092949241954
 30
0.0
 10
390.9179193696878
 20
40.83663805453433
 30
0.0
 10
391.0302323554425
 20
40.85672176170719
 30
0.0
 10
391.1428631957781
 20
40.87821013694077
 30
0.0
 10
391.2132085613575
 20
40.88908903375136
 30
0.0
 10
391.2442515490848
 20
40.89557276265063
 30
0.0
 10
391.2459710417256
 20
40.89585704991833
 30
0.0
 10
391.2468631998021
 20
40.89595737089677
 30
0.0
 10
391.2471079804491
 20
40.895857887244
 30
0.0
 10
391.2471762964427
 20
40.89583013910697
 30
0.0
 11
390.2038828487657
 21
40.89583013910697
 31
0.0
 11
390.2040196234619
 21
40.89590380797004
 31
0.0
 11
390.2045769803493
 21
40.89597357671683
 31
0.0
 11
390.22488460338
 21
40.89237376939006
 31
0.0
 11
390.2460983587735
 21
40.88856812259294
 31
0.0
 11
390.3372826294182
 21
40.87220973487437
 31
0.0
 11
390.5078919661945
 21
40.84118300982538
 31
0.0
 11
390.6006046940701
 21
40.82467945111193
 31
0.0
 11
390.6527090146192
 21
40.81847393276362
 31
0.0
 11
390.7255244435531
 21
40.81537117358948
 31
0.0
 11
390.7741444287144
 21
40.81678388237547
 31
0.0
 11
390.8157341944867
 21
40.82016354980553
 31
0.0
 11
390.9035161945613
 21
40.83398729528812
 31
0.0
 11
391.0340573840614
 21
40.85767790161376
 31
0.0
 11
391.1530650472976
 21
40.87933264724106
 31
0.0
 11
391.2417497603676
 21
40.89505184923591
 31
0.0
 11
391.2445980934178
 21
40.89561996617408
 31
0.0
 11
391.2464069387761
 21
40.89590380797004
 31
0.0
 11
391.2469677150308
 21
40.89590380797004
 31
0.0
 11
391.2471762964427
 21
40.89583013910697
 31
0.0
  0
SPLINE
  5
100
330
1F
100
AcDbEntity
  8
XR$1$STANDARD
  6
AUSGEZOGEN
 62
     7
370
    25
100
AcDbSpline
210
0.0
220
0.0
230
1.0
 70
     8
 71
     3
 72
    26
 73
    22
 74
    20
 42
0.0000000001
 43
0.0000000001
 44
0.0
 12
0.9952020536535244
 22
-0.09784105684122342
 32
0.0
 13
0.9997438539900523
 23
-0.02263241942694653
 33
0.0
 40
0.0
 40
0.0
 40
0.0
 40
0.0
 40
0.0006331162646224
 40
0.0025565512230754
 40
0.0148505533374097
 40
0.0351471657412152
 40
0.1518907482456347
 40
0.3102647962576923
 40
0.389531040626803
 40
0.4300114764773221
 40
0.4903680902713817
 40
0.5305800688197521
 40
0.5907068023732193
 40
0.6514193646805152
 40
0.750810770967418
 40
0.8615537306127607
 40
0.9773880845380207
 40
1.039904952209494
 40
1.058617810702531
 40
1.060459823067222
 40
1.061085567902923
 40
1.061085567902923
 40
1.061085567902923
 40
1.061085567902923
 10
390.2023475527999
 20
40.88243020626017
 30
0.0
 10
390.2025575790021
 20
40.88240955800536
 30
0.0
 10
390.2034068200758
 20
40.88232604986248
 30
0.0
 10
390.2081994793931
 20
40.8810238860798
 30
0.0
 10
390.2195132882781
 20
40.87896586366203
 30
0.0
 10
390.268248936464
 20
40.86878082404123
 30
0.0
 10
390.3650488738314
 20
40.85072586578757
 30
0.0
 10
390.4811258957791
 20
40.82881662384008
 30
0.0
 10
390.5722857296041
 20
40.81192357829283
 30
0.0
 10
390.6316708334135
 20
40.80299241683601
 30
0.0
 10
390.6786031678282
 20
40.79936809635353
 30
0.0
 10
390.7321626766138
 20
40.79813329645557
 30
0.0
 10
390.7858682448651
 20
40.79988134409525
 30
0.0
 10
390.8589176899449
 20
40.80782662601743
 30
0.0
 10
390.9476277303857
 20
40.82485292032433
 30
0.0
 10
391.0544587325841
 20
40.84469052577978
 30
0.0
 10
391.1491057390308
 20
40.86250389464283
 30
0.0
 10
391.2136314386497
 20
40.87538685464693
 30
0.0
 10
391.240717663246
 20
40.88060525000444
 30
0.0
 10
391.2475986825738
 20
40.88245445833732
 30
0.0
 10
391.2484244187735
 20
40.88243579365921
 30
0.0
 10
391.2486329469581
 20
40.88243107295268
 30
0.0
 11
390.2023475527999
 21
40.88243020626017
 31
0.0
 11
390.2029767164028
 21
40.88235957082087
 31
0.0
 11
390.2048539491093
 21
40.88194052499386
 31
0.0
 11
390.2168832836474
 21
40.87940328268036
 31
0.0
 11
390.2367771632218
 21
40.87538009606404
 31
0.0
 11
390.351401197442
 21
40.85323523582418
 31
0.0
 11
390.5070610599146
 21
40.8240402653882
 31
0.0
 11
390.5851012822464
 21
40.81015281800636
 31
0.0
 11
390.6251660101552
 21
40.80436634548507
 31
0.0
 11
390.6853263603155
 21
40.79950290048347
 31
0.0
 11
390.7255278629205
 21
40.79858507311883
 31
0.0
 11
390.7856198257326
 21
40.80062960074223
 31
0.0
 11
390.845992176672
 21
40.80704789210093
 31
0.0
 11
390.9439194398434
 21
40.82404503219698
 31
0.0
 11
391.0527715818804
 21
40.84442183972308
 31
0.0
 11
391.1665647098208
 21
40.8660718185416
 31
0.0
 11
391.2279081611038
 21
40.87812751131043
 31
0.0
 11
391.2461983573643
 21
40.88208222921871
 31
0.0
 11
391.2480072027226
 21
40.88243020626017
 31
0.0
 11
391.2486329469581
 21
40.88243107295268
 31
0.0
  0
LINE
  5
101
330
1F
100
AcDbEntity
  8
XR$1$STANDARD
  6
AUSGEZOGEN
 62
     7
370
    25
100
AcDbLine
 10
391.049917
 20
40.433661
 30
0.0
 11
391.081495
 21
40.433661
 31
0.0
  0
LINE
  5
102
330
1F
100
AcDbEntity
  8
XR$1$STANDARD
  6
AUSGEZOGEN
 62
     7
370
    25
100
AcDbLine
 10
391.081495
 20
40.433661
 30
0.0
 11
391.081495
 21
40.425693
 31
0.0
  0
LINE
  5
103
330
1F
100
AcDbEntity
  8
XR$1$STANDARD
  6
AUSGEZOGEN
 62
     7
370
    25
100
AcDbLine
 10
391.081495
 20
40.425693
 30
0.0
 11
391.049917
 21
40.425693
 31
0.0
  0
LINE
  5
104
330
1F
100
AcDbEntity
  8
XR$1$STANDARD
  6
AUSGEZOGEN
 62
     7
370
    25
100
AcDbLine
 10
391.049917
 20
40.425693
 30
0.0
 11
391.049917
 21
40.433661
 31
0.0
  0
LINE
  5
105
330
1F
100
AcDbEntity
  8
XR$1$STANDARD
  6
AUSGEZOGEN
 62
     7
370
    25
100
AcDbLine
 10
391.090334
 20
40.410389
 30
0.0
 11
391.041088
 21
40.410389
 31
0.0
  0
LINE
  5
106
330
1F
100
AcDbEntity
  8
XR$1$STANDARD
  6
AUSGEZOGEN
 62
     7
370
    25
100
AcDbLine
 10
391.041088
 20
40.410389
 30
0.0
 11
391.041088
 21
40.40623
 31
0.0
  0
LINE
  5
107
330
1F
100
AcDbEntity
  8
XR$1$STANDARD
  6
AUSGEZOGEN
 62
     7
370
    25
100
AcDbLine
 10
391.041088
 20
40.40623
 30
0.0
 11
391.090334
 21
40.40623
 31
0.0
  0
LINE
  5
108
330
1F
100
AcDbEntity
  8
XR$1$STANDARD
  6
AUSGEZOGEN
 62
     7
370
    25
100
AcDbLine
 10
391.090334
 20
40.40623
 30
0.0
 11
391.090334
 21
40.410389
 31
0.0
  0
LINE
  5
109
330
1F
100
AcDbEntity
  8
XR$1$STANDARD
  6
AUSGEZOGEN
 62
     7
370
    25
100
AcDbLine
 10
391.045748
 20
40.405668
 30
0.0
 11
391.08567
 21
40.405668
 31
0.0
  0
LINE
  5
10A
330
1F
100
AcDbEntity
  8
XR$1$STANDARD
  6
AUSGEZOGEN
 62
     7
370
    25
100
AcDbLine
 10
391.08567
 20
40.405668
 30
0.0
 11
391.08567
 21
40.403694
 31
0.0
  0
LINE
  5
10B
330
1F
100
AcDbEntity
  8
XR$1$STANDARD
  6
AUSGEZOGEN
 62
     7
370
    25
100
AcDbLine
 10
391.08567
 20
40.403694
 30
0.0
 11
391.045748
 21
40.403694
 31
0.0
  0
LINE
  5
10C
330
1F
100
AcDbEntity
  8
XR$1$STANDARD
  6
AUSGEZOGEN
 62
     7
370
    25
100
AcDbLine
 10
391.045748
 20
40.403694
 30
0.0
 11
391.045748
 21
40.405668
 31
0.0
  0
LINE
  5
10D
330
1F
100
AcDbEntity
  8
XR$1$STANDARD
  6
AUSGEZOGEN
 62
     7
370
    25
100
AcDbLine
 10
391.09033
 20
40.41039
 30
0.0
 11
391.090125
 21
40.410815
 31
0.0
  0
LINE
  5
10E
330
1F
100
AcDbEntity
  8
XR$1$STANDARD
  6
AUSGEZOGEN
 62
     7
370
    25
100
AcDbLine
 10
391.090125
 20
40.410815
 30
0.0
 11
391.074611
 21
40.425692
 31
0.0
  0
LINE
  5
10F
330
1F
100
AcDbEntity
  8
XR$1$STANDARD
  6
AUSGEZOGEN
 62
     7
370
    25
100
AcDbLine
 10
391.05681
 20
40.425692
 30
0.0
 11
391.0413
 21
40.410815
 31
0.0
  0
LINE
  5
110
330
1F
100
AcDbEntity
  8
XR$1$STANDARD
  6
AUSGEZOGEN
 62
     7
370
    25
100
AcDbLine
 10
391.0413
 20
40.410815
 30
0.0
 11
391.041091
 21
40.410389
 31
0.0
  0
LINE
  5
111
330
1F
100
AcDbEntity
  8
XR$1$STANDARD
  6
AUSGEZOGEN
 62
     7
370
    25
100
AcDbLine
 10
391.090125
 20
40.410815
 30
0.0
 11
391.0413
 21
40.410815
 31
0.0
  0
LINE
  5
112
330
1F
100
AcDbEntity
  8
XR$1$STANDARD
  6
AUSGEZOGEN
 62
     7
370
    25
100
AcDbLine
 10
391.089845
 20
40.405665
 30
0.0
 11
391.041573
 21
40.405665
 31
0.0
  0
LINE
  5
113
330
1F
100
AcDbEntity
  8
XR$1$STANDARD
  6
AUSGEZOGEN
 62
     7
370
    25
100
AcDbLine
 10
391.041573
 20
40.405665
 30
0.0
 11
391.041088
 21
40.40623
 31
0.0
  0
LINE
  5
114
330
1F
100
AcDbEntity
  8
XR$1$STANDARD
  6
AUSGEZOGEN
 62
     7
370
    25
100
AcDbLine
 10
391.090334
 20
40.40623
 30
0.0
 11
391.089845
 21
40.405665
 31
0.0
  0
LINE
  5
115
330
1F
100
AcDbEntity
  8
XR$1$STANDARD
  6
AUSGEZOGEN
 62
     7
370
    25
100
AcDbLine
 10
391.08567
 20
40.403694
 30
0.0
 11
391.084698
 21
40.402704
 31
0.0
  0
LINE
  5
116
330
1F
100
AcDbEntity
  8
XR$1$STANDARD
  6
AUSGEZOGEN
 62
     7
370
    25
100
AcDbLine
 10
391.084698
 20
40.402704
 30
0.0
 11
391.04672
 21
40.402704
 31
0.0
  0
LINE
  5
117
330
1F
100
AcDbEntity
  8
XR$1$STANDARD
  6
AUSGEZOGEN
 62
     7
370
    25
100
AcDbLine
 10
391.04672
 20
40.402704
 30
0.0
 11
391.045748
 21
40.403694
 31
0.0
  0
SPLINE
  5
118
330
1F
100
AcDbEntity
  8
XR$1$STANDARD
  6
AUSGEZOGEN
 62
     7
370
    25
100
AcDbSpline
210
0.0
220
0.0
230
1.0
 70
     8
 71
     3
 72
    14
 73
    10
 74
     8
 42
0.0000000001
 43
0.0000000001
 44
0.0
 12
0.8588094132119704
 22
-0.512295219359415
 32
0.0
 13
-0.004070047380402235
 23
-0.9999917173228593
 33
0.0
 40
0.0
 40
0.0
 40
0.0
 40
0.0
 40
0.0160936058637361
 40
0.0350355596807182
 40
0.0501468473704641
 40
0.0711906516941348
 40
0.0874820658963639
 40
0.1040412474509807
 40
0.1063700502165986
 40
0.1063700502165986
 40
0.1063700502165986
 40
0.1063700502165986
 10
391.0348988015674
 20
40.5237152779894
 30
0.0
 10
391.0395059149701
 20
40.52096705220732
 30
0.0
 10
391.0496083043815
 20
40.51493646066207
 30
0.0
 10
391.0608757726883
 20
40.50224770031981
 30
0.0
 10
391.0703994770913
 20
40.48650559229861
 30
0.0
 10
391.0767579633273
 20
40.47007416021837
 30
0.0
 10
391.0804132390709
 20
40.45245341707823
 30
0.0
 10
391.0815267222181
 20
40.44073457921868
 30
0.0
 10
391.0815011000369
 20
40.43443828758121
 30
0.0
 10
391.0814979405911
 20
40.43366202642224
 30
0.0
 11
391.0348988015674
 21
40.5237152779894
 31
0.0
 11
391.0483163992728
 21
40.51482864637148
 31
0.0
 11
391.0611903175604
 21
40.50093404877646
 31
0.0
 11
391.0690480238619
 21
40.4880263972735
 31
0.0
 11
391.076700568119
 21
40.4684233294828
 31
0.0
 11
391.080102838689
 21
40.45249113780442
 31
0.0
 11
391.0814979405911
 21
40.43599082918786
 31
0.0
 11
391.0814979405911
 21
40.43366202642224
 31
0.0
  0
SPLINE
  5
119
330
1F
100
AcDbEntity
  8
XR$1$STANDARD
  6
AUSGEZOGEN
 62
     7
370
    25
100
AcDbSpline
210
0.0
220
0.0
230
1.0
 70
     8
 71
     3
 72
    13
 73
     9
 74
     7
 42
0.0000000001
 43
0.0000000001
 44
0.0
 12
-0.0315508723429007
 22
0.9995021472985448
 32
0.0
 13
-0.8648315923059472
 23
0.5020620648381631
 33
0.0
 40
0.0
 40
0.0
 40
0.0
 40
0.0
 40
0.0111569686486058
 40
0.0241403550702944
 40
0.0404440602463783
 40
0.0548406208274264
 40
0.0641988502890643
 40
0.0706882336907365
 40
0.0706882336907365
 40
0.0706882336907365
 40
0.0706882336907365
 10
391.0499166632193
 20
40.43366115972973
 30
0.0
 10
391.0497993258547
 20
40.43737829777027
 30
0.0
 10
391.0495450812204
 20
40.44543767386642
 30
0.0
 10
391.0470015691643
 20
40.45872711953567
 30
0.0
 10
391.0421121793033
 20
40.47255437058232
 30
0.0
 10
391.0348420208895
 20
40.4838869655466
 30
0.0
 10
391.0276583747665
 20
40.49111755797451
 30
0.0
 10
391.0230681376273
 20
40.49378356022358
 30
0.0
 10
391.0211973963671
 20
40.49486958463364
 30
0.0
 11
391.0499166632193
 21
40.43366115972973
 31
0.0
 11
391.0492943383512
 21
40.44480075851894
 31
0.0
 11
391.0469281361055
 21
40.45756670579704
 31
0.0
 11
391.041296437986
 21
40.47286686196488
 31
0.0
 11
391.0334387316846
 21
40.48492992162002
 31
0.0
 11
391.0266889004229
 21
40.49141191487798
 31
0.0
 11
391.0211973963671
 21
40.49486958463364
 31
0.0
  0
LINE
  5
11A
330
1F
100
AcDbEntity
  8
XR$1$STANDARD
  6
AUSGEZOGEN
 62
     7
370
    25
100
AcDbLine
 10
390.610269
 20
40.619473
 30
0.0
 11
390.416154
 21
40.523715
 31
0.0
  0
LINE
  5
11B
330
1F
100
AcDbEntity
  8
XR$1$STANDARD
  6
AUSGEZOGEN
 62
     7
370
    25
100
AcDbLine
 10
390.682331
 20
40.619473
 30
0.0
 11
390.429855
 21
40.494872
 31
0.0
  0
LINE
  5
11C
330
1F
100
AcDbEntity
  8
XR$1$STANDARD
  6
AUSGEZOGEN
 62
     7
370
    25
100
AcDbLine
 10
390.768721
 20
40.619473
 30
0.0
 11
391.021197
 21
40.494872
 31
0.0
  0
LINE
  5
11D
330
1F
100
AcDbEntity
  8
XR$1$STANDARD
  6
AUSGEZOGEN
 62
     7
370
    25
100
AcDbLine
 10
390.840784
 20
40.619473
 30
0.0
 11
391.034899
 21
40.523715
 31
0.0
  0
HATCH
  5
11E
330
1F
100
AcDbEntity
  8
XR$1$STANDARD
  6
AUSGEZOGEN
 62
   255
370
    25
100
AcDbHatch
 10
0.0
 20
0.0
 30
0.0
210
0.0
220
0.0
230
1.0
  2
SOLID
 70
     1
 71
     0
 91
        1
 92
        3
 72
     0
 73
     1
 93
      165
 10
390.5323062494811
 20
40.61947266628972
 10
390.9181852807377
 20
40.61947266628972
 10
390.9202229073725
 20
40.61963275586655
 10
390.9212476869874
 20
40.61983847048069
 10
390.9222224534407
 20
40.6201513270958
 10
390.9231297067043
 20
40.62055900414526
 10
390.9239439419949
 20
40.6210411012008
 10
390.9248673837791
 20
40.62174731040217
 10
390.9317065575028
 20
40.62798874704455
 10
390.9466405866674
 20
40.64223112189163
 10
390.9577572576462
 20
40.65219279121994
 10
390.9728513511155
 20
40.66485709328096
 10
390.9873822299585
 20
40.67637684453489
 10
391.0006481311671
 20
40.68620236892066
 10
391.01544441003
 20
40.69642777441064
 10
391.0328980981333
 20
40.70773668520415
 10
391.055587647194
 20
40.72161761305318
 10
391.0987217556344
 20
40.74702798762188
 10
391.1175649830486
 20
40.75846510191462
 10
391.1303483645544
 20
40.7668017583414
 10
391.1422677247497
 20
40.77522495742383
 10
391.1546169749174
 20
40.78463082359557
 10
391.1675381348886
 20
40.79518520233872
 10
391.1806124170586
 20
40.80657961145183
 10
391.192401547667
 20
40.81755618013804
 10
391.2030503280954
 20
40.8281858374717
 10
391.2131227401408
 20
40.8390070747379
 10
391.2295655742305
 20
40.85791058260908
 10
391.2404563670406
 20
40.87070580917568
 10
391.2444857820571
 20
40.87596032017848
 10
391.2473345929237
 20
40.88022436571291
 10
391.2492054140647
 20
40.88347827460627
 10
391.2498430750989
 20
40.88487131560861
 10
391.2501830585221
 20
40.88589320327249
 10
391.2503916441876
 20
40.88687648104347
 10
391.2504956460079
 20
40.88791534117657
 10
391.2504861904793
 20
40.88898425308934
 10
391.2503604091588
 20
40.89005241930344
 10
391.2501224315759
 20
40.89108892615967
 10
391.2497833563831
 20
40.89206402732034
 10
391.2493584737128
 20
40.8929561130532
 10
391.2487917309512
 20
40.89386485482439
 10
391.2477925489345
 20
40.895134780836
 10
391.2445958085251
 20
40.89854874012757
 10
391.2401333787126
 20
40.90275338332288
 10
391.2339452722056
 20
40.90792549007477
 10
391.2205164769701
 20
40.91827616279163
 10
391.2047042713249
 20
40.93101166021902
 10
391.1755647695614
 20
40.95540441455771
 10
391.1568458113755
 20
40.9705259658984
 10
391.1352101191399
 20
40.9871560114854
 10
391.1089013597114
 20
41.00653360756588
 10
391.081937440174
 20
41.02561996603388
 10
391.0607257563226
 20
41.0400130017028
 10
391.0446913142251
 20
41.05026135570908
 10
391.030781846422
 20
41.05853394558326
 10
391.0178224346897
 20
41.06563095183098
 10
391.004947036191
 20
41.07208037189853
 10
390.9921460665916
 20
41.07790649994141
 10
390.9793903778364
 20
41.08313716078174
 10
390.9659472454005
 20
41.08806192720125
 10
390.9514166150378
 20
41.09279377694885
 10
390.9355368244926
 20
41.09736535063013
 10
390.9178885039489
 20
41.10183303255697
 10
390.8986205339972
 20
41.10610393932255
 10
390.878657791558
 20
41.10992716801239
 10
390.8579426974274
 20
41.11329131745084
 10
390.8364167402825
 20
41.11618229350272
 10
390.8140973836603
 20
41.11857357697386
 10
390.7909248085184
 20
41.12044694176896
 10
390.7668128869716
 20
41.12178311802003
 10
390.7423086107546
 20
41.12253813941537
 10
390.7181520922456
 20
41.1226841047549
 10
390.6943308773625
 20
41.12223121836926
 10
390.6708353355783
 20
41.12118896542886
 10
390.6476801200731
 20
41.1195673673312
 10
390.6248796216447
 20
41.11737689720469
 10
390.6024482546974
 20
41.11462860998171
 10
390.5811383377286
 20
41.1114416003791
 10
390.5612922728532
 20
41.10790139915859
 10
390.5422989380299
 20
41.10393512664865
 10
390.5238730376092
 20
41.09950851168113
 10
390.5060220871313
 20
41.09464179468276
 10
390.4901169385587
 20
41.08976263771701
 10
390.4761470015956
 20
41.0849373136764
 10
390.463579529108
 20
41.08005997000926
 10
390.452099915148
 20
41.07506954813255
 10
390.4405296983825
 20
41.06946087585134
 10
390.4279214877599
 20
41.06273453112638
 10
390.4136292792356
 20
41.05444607318175
 10
390.3958993580325
 20
41.04341403983167
 10
390.3749431399727
 20
41.02964059928134
 10
390.3530602725464
 20
41.01451010888749
 10
390.3299158800054
 20
40.99773363318626
 10
390.3049821423878
 20
40.9788561434483
 10
390.2780352292129
 20
40.95762932655533
 10
390.2484769642454
 20
40.93348532955861
 10
390.2053932911732
 20
40.89713823074633
 10
390.2040196234619
 20
40.89596967660055
 10
390.2028709561628
 20
40.89477670522435
 10
390.2023264051181
 20
40.89411100470227
 10
390.201931194593
 20
40.89352909548865
 10
390.201574244773
 20
40.89288629569904
 10
390.2012519412627
 20
40.89216483130238
 10
390.2009731555469
 20
40.89136553688843
 10
390.2007537841042
 20
40.89051786117223
 10
390.2006055135614
 20
40.88965819835098
 10
390.2005291146418
 20
40.88879470622874
 10
390.2005243846482
 20
40.88793504250313
 10
390.2005905861088
 20
40.88708327229168
 10
390.2007271158302
 20
40.88624053344682
 10
390.2009311196765
 20
40.88542051394653
 10
390.2011976698768
 20
40.88463613378685
 10
390.2015234765846
 20
40.88389148377625
 10
390.2020558921167
 20
40.88291216661716
 10
390.2040806476538
 20
40.87962741102485
 10
390.2066730304541
 20
40.87569688881739
 10
390.2095447573254
 20
40.87162674521561
 10
390.2127482353848
 20
40.86736344256173
 10
390.2163639771948
 20
40.86282447957293
 10
390.2205301979604
 20
40.85786702244042
 10
390.2255339284501
 20
40.85219130451188
 10
390.2322979594653
 20
40.84482358960549
 10
390.2409998220484
 20
40.83561512328024
 10
390.2491046965264
 20
40.82728691278935
 10
390.2567738259793
 20
40.81965085957433
 10
390.2641133583504
 20
40.81258281354873
 10
390.2711950420562
 20
40.80599821397472
 10
390.2780702914545
 20
40.79983599179655
 10
390.2847776220009
 20
40.7940500676772
 10
390.2913469185532
 20
40.78860447662025
 10
390.2978020493787
 20
40.78347038712077
 10
390.3041625506541
 20
40.77862418472346
 10
390.3104447575645
 20
40.7740461891171
 10
390.3168156803456
 20
40.76961357037473
 10
390.3237873319365
 20
40.76497782738431
 10
390.3316108081478
 20
40.75999305572248
 10
390.340748441314
 20
40.7543948958096
 10
390.3525789900304
 20
40.74739003249731
 10
390.3744794388695
 20
40.73468524440431
 10
390.3894229113496
 20
40.72587759225237
 10
390.4023124712904
 20
40.71808013741927
 10
390.4138880799832
 20
40.71087469924838
 10
390.4245133484403
 20
40.70405623329854
 10
390.4344007754129
 20
40.69750513964217
 10
390.4436884857874
 20
40.69114374074984
 10
390.4524499377446
 20
40.68493399461082
 10
390.4607232343915
 20
40.67886001692956
 10
390.4685612883604
 20
40.67289363531612
 10
390.4760054109048
 20
40.66701324879693
 10
390.4830887061232
 20
40.66120188062564
 10
390.489838341142
 20
40.65544585835625
 10
390.4962770563971
 20
40.64973393175718
 10
390.5024242047195
 20
40.64405666256284
 10
390.5095935077262
 20
40.6371515436425
 10
390.517481617164
 20
40.62952413485665
 10
390.5220545138134
 20
40.62530169609595
 10
390.5257505536458
 20
40.62207432035334
 10
390.5268066195134
 20
40.62123349827547
 10
390.527497329129
 20
40.62077023953653
 10
390.5281016084748
 20
40.62043973991333
 10
390.528769699345
 20
40.62015009355932
 10
390.52952479403
 20
40.61989907693084
 10
390.5303639236145
 20
40.61969788912429
 10
390.5312930831084
 20
40.61955563342205
 97
        0
 75
     0
 76
     1
 98
        0
  0
SPLINE
  5
11F
330
1F
100
AcDbEntity
  8
XR$1$STANDARD
  6
AUSGEZOGEN
 62
     7
370
    25
100
AcDbSpline
210
0.0
220
0.0
230
1.0
 70
     8
 71
     3
 72
    23
 73
    19
 74
    17
 42
0.0000000001
 43
0.0000000001
 44
0.0
 12
-0.910161829592674
 22
0.4142528744046522
 32
0.0
 13
-0.9999536955115085
 23
-0.00962324440496674
 33
0.0
 40
0.0
 40
0.0
 40
0.0
 40
0.0
 40
0.0004682512862082
 40
0.001231334064775
 40
0.0069031471395196
 40
0.021477421230862
 40
0.0354968006166756
 40
0.0616839107593285
 40
0.0946988457082966
 40
0.1474630429492302
 40
0.1949425870396844
 40
0.2813890067899708
 40
0.3794411769232864
 40
0.4975458680974538
 40
0.7027408498809692
 40
0.9170531039708121
 40
1.020419876317903
 40
1.041425662826968
 40
1.041425662826968
 40
1.041425662826968
 40
1.041425662826968
 10
393.1831396272529
 20
40.79454002586852
 30
0.0
 10
393.1829975657704
 20
40.7946046840156
 30
0.0
 10
393.1826225211047
 20
40.79477544673636
 30
0.0
 10
393.1807805651093
 20
40.79617109088608
 30
0.0
 10
393.1746776471339
 20
40.7996182931895
 30
0.0
 10
393.1653450327569
 20
40.80623184973056
 30
0.0
 10
393.1493723113426
 20
40.81513860457611
 30
0.0
 10
393.1268830125458
 20
40.82474904220378
 30
0.0
 10
393.0913382285709
 20
40.83624448812474
 30
0.0
 10
393.0480630759935
 20
40.84647586397816
 30
0.0
 10
392.9867989286708
 20
40.8574635806132
 30
0.0
 10
392.9100587858953
 20
40.86732997785754
 30
0.0
 10
392.80947427267
 20
40.8752217780636
 30
0.0
 10
392.669054606222
 20
40.88037576072344
 30
0.0
 10
392.4898489880077
 20
40.87542187367817
 30
0.0
 10
392.3155786554689
 20
40.87384175148645
 30
0.0
 10
392.2026959281859
 20
40.87201442692634
 30
0.0
 10
392.1612403378668
 20
40.87161547114634
 30
0.0
 10
392.1542387332512
 20
40.87154808987384
 30
0.0
 11
393.1831396272529
 21
40.79454002586852
 31
0.0
 11
393.1827190450618
 21
40.79474586533888
 31
0.0
 11
393.1820882129799
 21
40.79517522091579
 31
0.0
 11
393.1772925089868
 21
40.79820353509454
 31
0.0
 11
393.1650511736694
 21
40.80611297091109
 31
0.0
 11
393.1528440320261
 21
40.81300707645601
 31
0.0
 11
393.1288605890329
 21
40.82352178994785
 31
0.0
 11
393.0975152480121
 21
40.83388786567478
 31
0.0
 11
393.0462520918451
 21
40.84638383823704
 31
0.0
 11
392.999541703274
 21
40.85489540134657
 31
0.0
 11
392.9138336696385
 21
40.86616999481979
 31
0.0
 11
392.8161013104093
 21
40.87408289740638
 31
0.0
 11
392.698075005619
 21
40.87838515900987
 31
0.0
 11
392.4928924449897
 21
40.87612742502979
 31
0.0
 11
392.2786006895879
 21
40.87316333665672
 31
0.0
 11
392.175243470974
 21
40.87175799475703
 31
0.0
 11
392.1542387332512
 21
40.87154808987384
 31
0.0
  0
SPLINE
  5
120
330
1F
100
AcDbEntity
  8
XR$1$STANDARD
  6
AUSGEZOGEN
 62
     7
370
    25
100
AcDbSpline
210
0.0
220
0.0
230
1.0
 70
     8
 71
     3
 72
    23
 73
    19
 74
    17
 42
0.0000000001
 43
0.0000000001
 44
0.0
 12
0.9999833880910682
 22
0.005763986633240709
 32
0.0
 13
0.8491122890934012
 23
-0.5282123820117853
 33
0.0
 40
0.0
 40
0.0
 40
0.0
 40
0.0
 40
0.0102241555521443
 40
0.0204829151719017
 40
0.0733106225660103
 40
0.1872399283188527
 40
0.4018728130106227
 40
0.5453407916288775
 40
0.6405277601852889
 40
0.7604274328909326
 40
0.8484993033811677
 40
0.9096101868999079
 40
0.9604466282607247
 40
0.991239040961565
 40
1.008774944382365
 40
1.022300148890051
 40
1.036072120533345
 40
1.045103401602657
 40
1.045103401602657
 40
1.045103401602657
 40
1.045103401602657
 10
392.1527098397613
 20
40.88564544213888
 30
0.0
 10
392.1561178349978
 20
40.88566508610419
 30
0.0
 10
392.1629453989908
 20
40.88570444077178
 30
0.0
 10
392.1873803388648
 20
40.88601963756064
 30
0.0
 10
392.2463849297651
 20
40.88635988288291
 30
0.0
 10
392.373506557909
 20
40.88796554539417
 30
0.0
 10
392.5308374977835
 20
40.88913691164186
 30
0.0
 10
392.6819216999435
 20
40.89309497182126
 30
0.0
 10
392.8014278652772
 20
40.88975717624405
 30
0.0
 10
392.9023013008373
 20
40.88315152909371
 30
0.0
 10
392.991429845152
 20
40.87267534464287
 30
0.0
 10
393.0571322833529
 20
40.86116437193308
 30
0.0
 10
393.1034058717959
 20
40.84983392574357
 30
0.0
 10
393.1347173617612
 20
40.83911751795326
 30
0.0
 10
393.1536229318621
 20
40.83082492833131
 30
0.0
 10
393.1666866825238
 20
40.8235306752323
 30
0.0
 10
393.1768407989682
 20
40.81692909910418
 30
0.0
 10
393.183294995026
 20
40.81291410443665
 30
0.0
 10
393.1858511856067
 20
40.8113239596079
 30
0.0
 11
392.1527098397613
 21
40.88564544213888
 31
0.0
 11
392.1629337483085
 21
40.88571651092443
 31
0.0
 11
392.1731918505297
 21
40.88583264772033
 31
0.0
 11
392.2260176576017
 21
40.88628072774632
 31
0.0
 11
392.3399407215035
 21
40.8874732966356
 31
0.0
 11
392.5545573168091
 21
40.89011757547368
 31
0.0
 11
392.6980134570057
 21
40.89196059708928
 31
0.0
 11
392.79316761321
 21
40.88946148924607
 31
0.0
 11
392.912787343212
 21
40.88127297844235
 31
0.0
 11
393.0002171484437
 21
40.87065772861972
 31
0.0
 11
393.0603638211342
 21
40.85984487290556
 31
0.0
 11
393.1096369054702
 21
40.84733459991694
 31
0.0
 11
393.1387049477979
 21
40.83717479700661
 31
0.0
 11
393.154707587263
 21
40.8300037832058
 31
0.0
 11
393.1665351791241
 21
40.82344335427599
 31
0.0
 11
393.1781952219823
 21
40.81611460243894
 31
0.0
 11
393.1858511856067
 21
40.8113239596079
 31
0.0
  0
SPLINE
  5
121
330
1F
100
AcDbEntity
  8
XR$1$STANDARD
  6
AUSGEZOGEN
 62
     7
370
    25
100
AcDbSpline
210
0.0
220
0.0
230
1.0
 70
     8
 71
     3
 72
    57
 73
    53
 74
    51
 42
0.0000000001
 43
0.0000000001
 44
0.0
 12
0.9961631547115157
 22
0.08751553687889044
 32
0.0
 13
0.9942800476221976
 23
-0.1068044329623104
 33
0.0
 40
0.0
 40
0.0
 40
0.0
 40
0.0
 40
0.0033166620983414
 40
0.0071364285429042
 40
0.0287857804250779
 40
0.0504269623067316
 40
0.0850570546859435
 40
0.1111436164094328
 40
0.1370336999793628
 40
0.1613942324425873
 40
0.1857039984822142
 40
0.2333748465671963
 40
0.3043341453516018
 40
0.3751714765795239
 40
0.3786222721943273
 40
0.3819741613495118
 40
0.3853127222766007
 40
0.3886286878074104
 40
0.3919921711464791
 40
0.3953783925750424
 40
0.4162469305868237
 40
0.4540241806923386
 40
0.5191302423018884
 40
0.633414254746182
 40
0.8012103780700384
 40
1.06625351106075
 40
1.145153626946569
 40
1.147557867260883
 40
1.150068290641233
 40
1.150926547210433
 40
1.231589498316507
 40
1.311286614070313
 40
1.418270295779556
 40
1.49679242153764
 40
1.547898589776127
 40
1.572745373381574
 40
1.57508073777322
 40
1.578450281822122
 40
1.581772800987887
 40
1.585119726170151
 40
1.58843556372316
 40
1.627087458506442
 40
1.704341994710454
 40
1.782519460157706
 40
1.822102637713273
 40
1.885368807268656
 40
1.913662087173891
 40
1.951337720122546
 40
1.984481758505726
 40
2.000995198560291
 40
2.003772097550579
 40
2.007460795051294
 40
2.007460795051294
 40
2.007460795051294
 40
2.007460795051294
 10
392.8633980003841
 20
40.6154241522694
 30
0.0
 10
392.864499312577
 20
40.61552090542413
 30
0.0
 10
392.866941326875
 20
40.61573720862753
 30
0.0
 10
392.8748819573192
 20
40.62152010499158
 30
0.0
 10
392.8855921329594
 20
40.63285238588571
 30
0.0
 10
392.9042602683465
 20
40.65099927907153
 30
0.0
 10
392.9221247284225
 20
40.67184983994978
 30
0.0
 10
392.9412300916878
 20
40.69350521141857
 30
0.0
 10
392.9602668922504
 20
40.71056371117052
 30
0.0
 10
392.9815167467031
 20
40.72365956904644
 30
0.0
 10
393.01096628217
 20
40.73668390201438
 30
0.0
 10
393.0571484295397
 20
40.74885580796219
 30
0.0
 10
393.1167335276836
 20
40.7698554137571
 30
0.0
 10
393.1630324536127
 20
40.78387401505148
 30
0.0
 10
393.1861989418429
 20
40.7961470943676
 30
0.0
 10
393.188227841257
 20
40.79897887996535
 30
0.0
 10
393.1892958325111
 20
40.80218412214899
 30
0.0
 10
393.1892995710405
 20
40.80557606961943
 30
0.0
 10
393.1882060593106
 20
40.808849265344
 30
0.0
 10
393.1818583116119
 20
40.81567898367128
 30
0.0
 10
393.1642886705082
 20
40.82684363125853
 30
0.0
 10
393.1282920407146
 20
40.84682132070395
 30
0.0
 10
393.0642918721464
 20
40.8809105291731
 30
0.0
 10
392.9561838809643
 20
40.92258697279157
 30
0.0
 10
392.7908107253392
 20
40.99997567786828
 30
0.0
 10
392.6312637463515
 20
41.05891310229585
 30
0.0
 10
392.5276500215559
 20
41.11266382526998
 30
0.0
 10
392.5003178126101
 20
41.11874829166587
 30
0.0
 10
392.4983565618214
 20
41.11865938616896
 30
0.0
 10
392.471368891523
 20
41.11112223609877
 30
0.0
 10
392.4208401538614
 20
41.0923244929231
 30
0.0
 10
392.3408652035378
 20
41.0526679994958
 30
0.0
 10
392.2676992214755
 20
41.00237697155576
 30
0.0
 10
392.2087223821019
 20
40.94972082173631
 30
0.0
 10
392.1742666879675
 20
40.91141342177019
 30
0.0
 10
392.1570115277646
 20
40.89183463928414
 30
0.0
 10
392.1511655183916
 20
40.88344158965545
 30
0.0
 10
392.1503669732537
 20
40.88045031685789
 30
0.0
 10
392.1505996753251
 20
40.87707860312871
 30
0.0
 10
392.1518065715581
 20
40.87387164883078
 30
0.0
 10
392.1628191481728
 20
40.86327190420377
 30
0.0
 10
392.1950315810049
 20
40.84019791633928
 30
0.0
 10
392.2458847271397
 20
40.80004739944714
 30
0.0
 10
392.2990582320369
 20
40.76263461778035
 30
0.0
 10
392.3487827348508
 20
40.72850345557782
 30
0.0
 10
392.3862653233117
 20
40.7056481862102
 30
0.0
 10
392.4181383723912
 20
40.676452061592
 30
0.0
 10
392.4391941515245
 20
40.65088533841899
 30
0.0
 10
392.4611386520764
 20
40.63164922108708
 30
0.0
 10
392.4740655871155
 20
40.61991471532204
 30
0.0
 10
392.4806342188509
 20
40.61579352862817
 30
0.0
 10
392.4828376862017
 20
40.61555547535104
 30
0.0
 10
392.4840602189772
 20
40.6154241522694
 30
0.0
 11
392.8633980003841
 21
40.6154241522694
 31
0.0
 11
392.8666669156252
 21
40.61598490232125
 31
0.0
 11
392.8699358308664
 21
40.61796096123664
 31
0.0
 11
392.8857264695523
 21
40.63277143613816
 31
0.0
 11
392.9009597513509
 21
40.64814309443781
 31
0.0
 11
392.9240507394509
 21
40.67395103055743
 31
0.0
 11
392.9416502234952
 21
40.6932063379798
 31
0.0
 11
392.9611235208785
 21
40.71026761332135
 31
0.0
 11
392.9817833387521
 21
40.72317526482431
 31
0.0
 11
393.0039681944892
 21
40.73311492783793
 31
0.0
 11
393.0494594584731
 21
40.74736465268758
 31
0.0
 11
393.1169235774148
 21
40.76936044181629
 31
0.0
 11
393.1831362078855
 21
40.79453612575224
 31
0.0
 11
393.1860563476511
 21
40.7963748139053
 31
0.0
 11
393.1880737744213
 21
40.79905159371238
 31
0.0
 11
393.1891201008478
 21
40.80222195490206
 31
0.0
 11
393.1891201008478
 21
40.80553792043287
 31
0.0
 11
393.1880053870731
 21
40.80871131504632
 31
0.0
 11
393.1858511856067
 21
40.8113239596079
 31
0.0
 11
393.1690210592291
 21
40.8236626274802
 31
0.0
 11
393.1361882933863
 21
40.84234765123313
 31
0.0
 11
393.0783907261043
 21
40.87231831146264
 31
0.0
 11
392.9732691139084
 21
40.91715448156787
 31
0.0
 11
392.8195856457971
 21
40.98451122311464
 31
0.0
 11
392.5758052658766
 21
41.08852559092671
 31
0.0
 11
392.5027026100806
 21
41.11821110932152
 31
0.0
 11
392.5003364078349
 21
41.11863708868859
 31
0.0
 11
392.4978300115255
 21
41.11849495111748
 31
0.0
 11
392.4969991052456
 21
41.11828001137582
 31
0.0
 11
392.4211165037477
 21
41.09092416243914
 31
0.0
 11
392.3498192739426
 21
41.05531046729819
 31
0.0
 11
392.2614901750828
 21
40.99494923431963
 31
0.0
 11
392.2031352509136
 21
40.9424094678682
 31
0.0
 11
392.1685004784472
 21
40.90482924742945
 31
0.0
 11
392.1527098397613
 21
40.88564544213888
 31
0.0
 11
392.1514617706578
 21
40.88367154995476
 31
0.0
 11
392.1505522189275
 21
40.88042708655576
 31
0.0
 11
392.1507608003393
 21
40.87711112102495
 31
0.0
 11
392.1520157081777
 21
40.87400836185081
 31
0.0
 11
392.1542387332512
 21
40.87154808987384
 31
0.0
 11
392.1844962791776
 21
40.84749710476196
 31
0.0
 11
392.2460517312398
 21
40.80081531296361
 31
0.0
 11
392.3096861586857
 21
40.75540192564889
 31
0.0
 11
392.3424471178129
 21
40.73318599662348
 31
0.0
 11
392.3945480189946
 21
40.69729582657288
 31
0.0
 11
392.4154095795452
 21
40.67818287339475
 31
0.0
 11
392.4409351572391
 21
40.65047189720344
 31
0.0
 11
392.4652126658294
 21
40.62790799113656
 31
0.0
 11
392.4780079386667
 21
40.61746889656593
 31
0.0
 11
392.4804391088931
 21
40.61612703989237
 31
0.0
 11
392.4840602189772
 21
40.6154241522694
 31
0.0
  0
LINE
  5
122
330
1F
100
AcDbEntity
  8
XR$1$STANDARD
  6
AUSGEZOGEN
 62
     7
370
    25
100
AcDbLine
 10
392.863398
 20
40.615424
 30
0.0
 11
392.48406
 21
40.615424
 31
0.0
  0
LINE
  5
123
330
1F
100
AcDbEntity
  8
XR$1$STANDARD
  6
AUSGEZOGEN
 62
     7
370
    25
100
AcDbLine
 10
392.998535
 20
40.429612
 30
0.0
 11
393.030113
 21
40.429612
 31
0.0
  0
LINE
  5
124
330
1F
100
AcDbEntity
  8
XR$1$STANDARD
  6
AUSGEZOGEN
 62
     7
370
    25
100
AcDbLine
 10
393.030113
 20
40.429612
 30
0.0
 11
393.030113
 21
40.421644
 31
0.0
  0
LINE
  5
125
330
1F
100
AcDbEntity
  8
XR$1$STANDARD
  6
AUSGEZOGEN
 62
     7
370
    25
100
AcDbLine
 10
393.030113
 20
40.421644
 30
0.0
 11
392.998535
 21
40.421644
 31
0.0
  0
LINE
  5
126
330
1F
100
AcDbEntity
  8
XR$1$STANDARD
  6
AUSGEZOGEN
 62
     7
370
    25
100
AcDbLine
 10
392.998535
 20
40.421644
 30
0.0
 11
392.998535
 21
40.429612
 31
0.0
  0
LINE
  5
127
330
1F
100
AcDbEntity
  8
XR$1$STANDARD
  6
AUSGEZOGEN
 62
     7
370
    25
100
AcDbLine
 10
393.038952
 20
40.40634
 30
0.0
 11
392.989706
 21
40.40634
 31
0.0
  0
LINE
  5
128
330
1F
100
AcDbEntity
  8
XR$1$STANDARD
  6
AUSGEZOGEN
 62
     7
370
    25
100
AcDbLine
 10
392.989706
 20
40.40634
 30
0.0
 11
392.989706
 21
40.402181
 31
0.0
  0
LINE
  5
129
330
1F
100
AcDbEntity
  8
XR$1$STANDARD
  6
AUSGEZOGEN
 62
     7
370
    25
100
AcDbLine
 10
392.989706
 20
40.402181
 30
0.0
 11
393.038952
 21
40.402181
 31
0.0
  0
LINE
  5
12A
330
1F
100
AcDbEntity
  8
XR$1$STANDARD
  6
AUSGEZOGEN
 62
     7
370
    25
100
AcDbLine
 10
393.038952
 20
40.402181
 30
0.0
 11
393.038952
 21
40.40634
 31
0.0
  0
LINE
  5
12B
330
1F
100
AcDbEntity
  8
XR$1$STANDARD
  6
AUSGEZOGEN
 62
     7
370
    25
100
AcDbLine
 10
392.994367
 20
40.401618
 30
0.0
 11
393.034288
 21
40.401618
 31
0.0
  0
LINE
  5
12C
330
1F
100
AcDbEntity
  8
XR$1$STANDARD
  6
AUSGEZOGEN
 62
     7
370
    25
100
AcDbLine
 10
393.034288
 20
40.401618
 30
0.0
 11
393.034288
 21
40.399645
 31
0.0
  0
LINE
  5
12D
330
1F
100
AcDbEntity
  8
XR$1$STANDARD
  6
AUSGEZOGEN
 62
     7
370
    25
100
AcDbLine
 10
393.034288
 20
40.399645
 30
0.0
 11
392.994367
 21
40.399645
 31
0.0
  0
LINE
  5
12E
330
1F
100
AcDbEntity
  8
XR$1$STANDARD
  6
AUSGEZOGEN
 62
     7
370
    25
100
AcDbLine
 10
392.994367
 20
40.399645
 30
0.0
 11
392.994367
 21
40.401618
 31
0.0
  0
LINE
  5
12F
330
1F
100
AcDbEntity
  8
XR$1$STANDARD
  6
AUSGEZOGEN
 62
     7
370
    25
100
AcDbLine
 10
393.038949
 20
40.406341
 30
0.0
 11
393.038743
 21
40.406766
 31
0.0
  0
LINE
  5
130
330
1F
100
AcDbEntity
  8
XR$1$STANDARD
  6
AUSGEZOGEN
 62
     7
370
    25
100
AcDbLine
 10
393.038743
 20
40.406766
 30
0.0
 11
393.02323
 21
40.421643
 31
0.0
  0
LINE
  5
131
330
1F
100
AcDbEntity
  8
XR$1$STANDARD
  6
AUSGEZOGEN
 62
     7
370
    25
100
AcDbLine
 10
393.005429
 20
40.421643
 30
0.0
 11
392.989918
 21
40.406766
 31
0.0
  0
LINE
  5
132
330
1F
100
AcDbEntity
  8
XR$1$STANDARD
  6
AUSGEZOGEN
 62
     7
370
    25
100
AcDbLine
 10
392.989918
 20
40.406766
 30
0.0
 11
392.98971
 21
40.40634
 31
0.0
  0
LINE
  5
133
330
1F
100
AcDbEntity
  8
XR$1$STANDARD
  6
AUSGEZOGEN
 62
     7
370
    25
100
AcDbLine
 10
393.038743
 20
40.406766
 30
0.0
 11
392.989918
 21
40.406766
 31
0.0
  0
LINE
  5
134
330
1F
100
AcDbEntity
  8
XR$1$STANDARD
  6
AUSGEZOGEN
 62
     7
370
    25
100
AcDbLine
 10
393.038463
 20
40.401615
 30
0.0
 11
392.990192
 21
40.401615
 31
0.0
  0
LINE
  5
135
330
1F
100
AcDbEntity
  8
XR$1$STANDARD
  6
AUSGEZOGEN
 62
     7
370
    25
100
AcDbLine
 10
392.990192
 20
40.401615
 30
0.0
 11
392.989706
 21
40.402181
 31
0.0
  0
LINE
  5
136
330
1F
100
AcDbEntity
  8
XR$1$STANDARD
  6
AUSGEZOGEN
 62
     7
370
    25
100
AcDbLine
 10
393.038952
 20
40.402181
 30
0.0
 11
393.038463
 21
40.401615
 31
0.0
  0
LINE
  5
137
330
1F
100
AcDbEntity
  8
XR$1$STANDARD
  6
AUSGEZOGEN
 62
     7
370
    25
100
AcDbLine
 10
393.034288
 20
40.399645
 30
0.0
 11
393.033317
 21
40.398655
 31
0.0
  0
LINE
  5
138
330
1F
100
AcDbEntity
  8
XR$1$STANDARD
  6
AUSGEZOGEN
 62
     7
370
    25
100
AcDbLine
 10
393.033317
 20
40.398655
 30
0.0
 11
392.995338
 21
40.398655
 31
0.0
  0
LINE
  5
139
330
1F
100
AcDbEntity
  8
XR$1$STANDARD
  6
AUSGEZOGEN
 62
     7
370
    25
100
AcDbLine
 10
392.995338
 20
40.398655
 30
0.0
 11
392.994367
 21
40.399645
 31
0.0
  0
SPLINE
  5
13A
330
1F
100
AcDbEntity
  8
XR$1$STANDARD
  6
AUSGEZOGEN
 62
     7
370
    25
100
AcDbSpline
210
0.0
220
0.0
230
1.0
 70
     8
 71
     3
 72
    14
 73
    10
 74
     8
 42
0.0000000001
 43
0.0000000001
 44
0.0
 12
0.8588094132118176
 22
-0.5122952193596709
 32
0.0
 13
-0.00407004738040194
 23
-0.9999917173228593
 33
0.0
 40
0.0
 40
0.0
 40
0.0
 40
0.0
 40
0.0160936058636887
 40
0.035035559680676
 40
0.0501468473704219
 40
0.0711906516940859
 40
0.0874820658963151
 40
0.1040412474509319
 40
0.106370050216564
 40
0.106370050216564
 40
0.106370050216564
 40
0.106370050216564
 10
392.9835172111512
 20
40.51966589727657
 30
0.0
 10
392.988124324554
 20
40.5169176714945
 30
0.0
 10
392.9982267139653
 20
40.51088707994921
 30
0.0
 10
393.0094941822722
 20
40.49819831960697
 30
0.0
 10
393.0190178866752
 20
40.48245621158579
 30
0.0
 10
393.0253763729111
 20
40.46602477950553
 30
0.0
 10
393.0290316486547
 20
40.4484040363654
 30
0.0
 10
393.0301451318019
 20
40.4366851985059
 30
0.0
 10
393.0301195096207
 20
40.43038890686837
 30
0.0
 10
393.0301163501749
 20
40.4296126457094
 30
0.0
 11
392.9835172111512
 21
40.51966589727657
 31
0.0
 11
392.9969348088566
 21
40.51077926565866
 31
0.0
 11
393.0098087271442
 21
40.49688466806363
 31
0.0
 11
393.0176664334457
 21
40.48397701656067
 31
0.0
 11
393.0253189777027
 21
40.46437394876997
 31
0.0
 11
393.0287212482728
 21
40.44844175709159
 31
0.0
 11
393.0301163501749
 21
40.43194144847503
 31
0.0
 11
393.0301163501749
 21
40.4296126457094
 31
0.0
  0
SPLINE
  5
13B
330
1F
100
AcDbEntity
  8
XR$1$STANDARD
  6
AUSGEZOGEN
 62
     7
370
    25
100
AcDbSpline
210
0.0
220
0.0
230
1.0
 70
     8
 71
     3
 72
    13
 73
     9
 74
     7
 42
0.0000000001
 43
0.0000000001
 44
0.0
 12
-0.03155087234232126
 22
0.999502147298563
 32
0.0
 13
-0.8648315923060309
 23
0.502062064838019
 33
0.0
 40
0.0
 40
0.0
 40
0.0
 40
0.0
 40
0.0111569686485987
 40
0.0241403550703013
 40
0.0404440602463982
 40
0.0548406208274463
 40
0.0641988502890382
 40
0.0706882336906623
 40
0.0706882336906623
 40
0.0706882336906623
 40
0.0706882336906623
 10
392.9985350728031
 20
40.42961177901689
 30
0.0
 10
392.9984177354386
 20
40.43332891705744
 30
0.0
 10
392.9981634908042
 20
40.44138829315359
 30
0.0
 10
392.9956199787481
 20
40.45467773882285
 30
0.0
 10
392.9907305888873
 20
40.46850498986949
 30
0.0
 10
392.983460430473
 20
40.47983758483375
 30
0.0
 10
392.9762767843505
 20
40.48706817726166
 30
0.0
 10
392.9716865472112
 20
40.48973417951075
 30
0.0
 10
392.969815805951
 20
40.4908202039208
 30
0.0
 11
392.9985350728031
 21
40.42961177901689
 31
0.0
 11
392.997912747935
 21
40.44075137780609
 31
0.0
 11
392.9955465456893
 21
40.45351732508421
 31
0.0
 11
392.9899148475698
 21
40.46881748125205
 31
0.0
 11
392.9820571412683
 21
40.48088054090719
 31
0.0
 11
392.9753073100068
 21
40.48736253416514
 31
0.0
 11
392.969815805951
 21
40.4908202039208
 31
0.0
  0
LINE
  5
13C
330
1F
100
AcDbEntity
  8
XR$1$STANDARD
  6
AUSGEZOGEN
 62
     7
370
    25
100
AcDbLine
 10
392.349754
 20
40.429612
 30
0.0
 11
392.318176
 21
40.429612
 31
0.0
  0
LINE
  5
13D
330
1F
100
AcDbEntity
  8
XR$1$STANDARD
  6
AUSGEZOGEN
 62
     7
370
    25
100
AcDbLine
 10
392.318176
 20
40.429612
 30
0.0
 11
392.318176
 21
40.421644
 31
0.0
  0
LINE
  5
13E
330
1F
100
AcDbEntity
  8
XR$1$STANDARD
  6
AUSGEZOGEN
 62
     7
370
    25
100
AcDbLine
 10
392.318176
 20
40.421644
 30
0.0
 11
392.349754
 21
40.421644
 31
0.0
  0
LINE
  5
13F
330
1F
100
AcDbEntity
  8
XR$1$STANDARD
  6
AUSGEZOGEN
 62
     7
370
    25
100
AcDbLine
 10
392.349754
 20
40.421644
 30
0.0
 11
392.349754
 21
40.429612
 31
0.0
  0
LINE
  5
140
330
1F
100
AcDbEntity
  8
XR$1$STANDARD
  6
AUSGEZOGEN
 62
     7
370
    25
100
AcDbLine
 10
392.309337
 20
40.40634
 30
0.0
 11
392.358583
 21
40.40634
 31
0.0
  0
LINE
  5
141
330
1F
100
AcDbEntity
  8
XR$1$STANDARD
  6
AUSGEZOGEN
 62
     7
370
    25
100
AcDbLine
 10
392.358583
 20
40.40634
 30
0.0
 11
392.358583
 21
40.402181
 31
0.0
  0
LINE
  5
142
330
1F
100
AcDbEntity
  8
XR$1$STANDARD
  6
AUSGEZOGEN
 62
     7
370
    25
100
AcDbLine
 10
392.358583
 20
40.402181
 30
0.0
 11
392.309337
 21
40.402181
 31
0.0
  0
LINE
  5
143
330
1F
100
AcDbEntity
  8
XR$1$STANDARD
  6
AUSGEZOGEN
 62
     7
370
    25
100
AcDbLine
 10
392.309337
 20
40.402181
 30
0.0
 11
392.309337
 21
40.40634
 31
0.0
  0
LINE
  5
144
330
1F
100
AcDbEntity
  8
XR$1$STANDARD
  6
AUSGEZOGEN
 62
     7
370
    25
100
AcDbLine
 10
392.353923
 20
40.401618
 30
0.0
 11
392.314001
 21
40.401618
 31
0.0
  0
LINE
  5
145
330
1F
100
AcDbEntity
  8
XR$1$STANDARD
  6
AUSGEZOGEN
 62
     7
370
    25
100
AcDbLine
 10
392.314001
 20
40.401618
 30
0.0
 11
392.314001
 21
40.399645
 31
0.0
  0
LINE
  5
146
330
1F
100
AcDbEntity
  8
XR$1$STANDARD
  6
AUSGEZOGEN
 62
     7
370
    25
100
AcDbLine
 10
392.314001
 20
40.399645
 30
0.0
 11
392.353923
 21
40.399645
 31
0.0
  0
LINE
  5
147
330
1F
100
AcDbEntity
  8
XR$1$STANDARD
  6
AUSGEZOGEN
 62
     7
370
    25
100
AcDbLine
 10
392.353923
 20
40.399645
 30
0.0
 11
392.353923
 21
40.401618
 31
0.0
  0
LINE
  5
148
330
1F
100
AcDbEntity
  8
XR$1$STANDARD
  6
AUSGEZOGEN
 62
     7
370
    25
100
AcDbLine
 10
392.309341
 20
40.406341
 30
0.0
 11
392.309546
 21
40.406766
 31
0.0
  0
LINE
  5
149
330
1F
100
AcDbEntity
  8
XR$1$STANDARD
  6
AUSGEZOGEN
 62
     7
370
    25
100
AcDbLine
 10
392.309546
 20
40.406766
 30
0.0
 11
392.32506
 21
40.421643
 31
0.0
  0
LINE
  5
14A
330
1F
100
AcDbEntity
  8
XR$1$STANDARD
  6
AUSGEZOGEN
 62
     7
370
    25
100
AcDbLine
 10
392.342861
 20
40.421643
 30
0.0
 11
392.358371
 21
40.406766
 31
0.0
  0
LINE
  5
14B
330
1F
100
AcDbEntity
  8
XR$1$STANDARD
  6
AUSGEZOGEN
 62
     7
370
    25
100
AcDbLine
 10
392.358371
 20
40.406766
 30
0.0
 11
392.35858
 21
40.40634
 31
0.0
  0
LINE
  5
14C
330
1F
100
AcDbEntity
  8
XR$1$STANDARD
  6
AUSGEZOGEN
 62
     7
370
    25
100
AcDbLine
 10
392.309546
 20
40.406766
 30
0.0
 11
392.358371
 21
40.406766
 31
0.0
  0
LINE
  5
14D
330
1F
100
AcDbEntity
  8
XR$1$STANDARD
  6
AUSGEZOGEN
 62
     7
370
    25
100
AcDbLine
 10
392.309826
 20
40.401615
 30
0.0
 11
392.358098
 21
40.401615
 31
0.0
  0
LINE
  5
14E
330
1F
100
AcDbEntity
  8
XR$1$STANDARD
  6
AUSGEZOGEN
 62
     7
370
    25
100
AcDbLine
 10
392.358098
 20
40.401615
 30
0.0
 11
392.358583
 21
40.402181
 31
0.0
  0
LINE
  5
14F
330
1F
100
AcDbEntity
  8
XR$1$STANDARD
  6
AUSGEZOGEN
 62
     7
370
    25
100
AcDbLine
 10
392.309337
 20
40.402181
 30
0.0
 11
392.309826
 21
40.401615
 31
0.0
  0
LINE
  5
150
330
1F
100
AcDbEntity
  8
XR$1$STANDARD
  6
AUSGEZOGEN
 62
     7
370
    25
100
AcDbLine
 10
392.314001
 20
40.399645
 30
0.0
 11
392.314973
 21
40.398655
 31
0.0
  0
LINE
  5
151
330
1F
100
AcDbEntity
  8
XR$1$STANDARD
  6
AUSGEZOGEN
 62
     7
370
    25
100
AcDbLine
 10
392.314973
 20
40.398655
 30
0.0
 11
392.352951
 21
40.398655
 31
0.0
  0
LINE
  5
152
330
1F
100
AcDbEntity
  8
XR$1$STANDARD
  6
AUSGEZOGEN
 62
     7
370
    25
100
AcDbLine
 10
392.352951
 20
40.398655
 30
0.0
 11
392.353923
 21
40.399645
 31
0.0
  0
SPLINE
  5
153
330
1F
100
AcDbEntity
  8
XR$1$STANDARD
  6
AUSGEZOGEN
 62
     7
370
    25
100
AcDbSpline
210
0.0
220
0.0
230
1.0
 70
     8
 71
     3
 72
    14
 73
    10
 74
     8
 42
0.0000000001
 43
0.0000000001
 44
0.0
 12
-0.8588094132118176
 22
-0.5122952193596709
 32
0.0
 13
0.00407004738040194
 23
-0.9999917173228593
 33
0.0
 40
0.0
 40
0.0
 40
0.0
 40
0.0
 40
0.0160936058636887
 40
0.035035559680676
 40
0.0501468473704219
 40
0.0711906516941066
 40
0.0874820658963239
 40
0.1040412474509455
 40
0.1063700502165776
 40
0.1063700502165776
 40
0.1063700502165776
 40
0.1063700502165776
 10
392.3647721676138
 20
40.51966589727657
 30
0.0
 10
392.360165054211
 20
40.5169176714945
 30
0.0
 10
392.3500626647996
 20
40.51088707994921
 30
0.0
 10
392.3387951964929
 20
40.49819831960697
 30
0.0
 10
392.3292714920899
 20
40.48245621158577
 30
0.0
 10
392.3229130058536
 20
40.46602477950556
 30
0.0
 10
392.3192577301103
 20
40.44840403636537
 30
0.0
 10
392.3181442469629
 20
40.4366851985059
 30
0.0
 10
392.3181698691442
 20
40.43038890686837
 30
0.0
 10
392.31817302859
 20
40.4296126457094
 30
0.0
 11
392.3647721676138
 21
40.51966589727657
 31
0.0
 11
392.3513545699084
 21
40.51077926565866
 31
0.0
 11
392.3384806516207
 21
40.49688466806363
 31
0.0
 11
392.3306229453192
 21
40.48397701656067
 31
0.0
 11
392.3229704010622
 21
40.46437394876997
 31
0.0
 11
392.3195681304921
 21
40.44844175709159
 31
0.0
 11
392.31817302859
 21
40.43194144847503
 31
0.0
 11
392.31817302859
 21
40.4296126457094
 31
0.0
  0
SPLINE
  5
154
330
1F
100
AcDbEntity
  8
XR$1$STANDARD
  6
AUSGEZOGEN
 62
     7
370
    25
100
AcDbSpline
210
0.0
220
0.0
230
1.0
 70
     8
 71
     3
 72
    13
 73
     9
 74
     7
 42
0.0000000001
 43
0.0000000001
 44
0.0
 12
0.03155087234232126
 22
0.999502147298563
 32
0.0
 13
0.8648315923060309
 23
0.502062064838019
 33
0.0
 40
0.0
 40
0.0
 40
0.0
 40
0.0
 40
0.0111569686485987
 40
0.0241403550703013
 40
0.0404440602463982
 40
0.0548406208274463
 40
0.0641988502890382
 40
0.0706882336906623
 40
0.0706882336906623
 40
0.0706882336906623
 40
0.0706882336906623
 10
392.3497543059618
 20
40.42961177901689
 30
0.0
 10
392.3498716433264
 20
40.43332891705744
 30
0.0
 10
392.3501258879606
 20
40.44138829315359
 30
0.0
 10
392.3526694000169
 20
40.45467773882285
 30
0.0
 10
392.3575587898777
 20
40.46850498986949
 30
0.0
 10
392.3648289482918
 20
40.47983758483375
 30
0.0
 10
392.3720125944145
 20
40.48706817726166
 30
0.0
 10
392.3766028315538
 20
40.48973417951075
 30
0.0
 10
392.3784735728139
 20
40.4908202039208
 30
0.0
 11
392.3497543059618
 21
40.42961177901689
 31
0.0
 11
392.3503766308299
 21
40.44075137780609
 31
0.0
 11
392.3527428330756
 21
40.45351732508421
 31
0.0
 11
392.3583745311951
 21
40.46881748125205
 31
0.0
 11
392.3662322374966
 21
40.48088054090719
 31
0.0
 11
392.3729820687582
 21
40.48736253416514
 31
0.0
 11
392.3784735728139
 21
40.4908202039208
 31
0.0
  0
LINE
  5
155
330
1F
100
AcDbEntity
  8
XR$1$STANDARD
  6
AUSGEZOGEN
 62
     7
370
    25
100
AcDbLine
 10
392.789402
 20
40.615423
 30
0.0
 11
392.983517
 21
40.519666
 31
0.0
  0
LINE
  5
156
330
1F
100
AcDbEntity
  8
XR$1$STANDARD
  6
AUSGEZOGEN
 62
     7
370
    25
100
AcDbLine
 10
392.71734
 20
40.615423
 30
0.0
 11
392.969816
 21
40.490823
 31
0.0
  0
LINE
  5
157
330
1F
100
AcDbEntity
  8
XR$1$STANDARD
  6
AUSGEZOGEN
 62
     7
370
    25
100
AcDbLine
 10
392.63095
 20
40.615423
 30
0.0
 11
392.378474
 21
40.490823
 31
0.0
  0
LINE
  5
158
330
1F
100
AcDbEntity
  8
XR$1$STANDARD
  6
AUSGEZOGEN
 62
     7
370
    25
100
AcDbLine
 10
392.558887
 20
40.615423
 30
0.0
 11
392.364772
 21
40.519666
 31
0.0
  0
SPLINE
  5
159
330
1F
100
AcDbEntity
  8
XR$1$STANDARD
  6
STRICHLINIE2_S3
 62
     7
370
    25
100
AcDbSpline
210
0.0
220
0.0
230
1.0
 70
     8
 71
     3
 72
    28
 73
    24
 74
    22
 42
0.0000000001
 43
0.0000000001
 44
0.0
 12
-0.9168384364520806
 22
0.3992584143685691
 32
0.0
 13
-0.9358015300803895
 23
0.3525272986581351
 33
0.0
 40
0.0
 40
0.0
 40
0.0
 40
0.0
 40
0.0028560242303899
 40
0.0056417906840414
 40
0.0286464523785069
 40
0.0594252412243745
 40
0.1371339350368645
 40
0.3079699943506582
 40
0.4362362549319748
 40
0.523266661799414
 40
0.526523479796162
 40
0.5305115839482032
 40
0.5347668152051523
 40
0.5380710432237503
 40
0.5504951956937042
 40
0.607283971052098
 40
0.6873497761890708
 40
0.8020489035297531
 40
0.8866810079318784
 40
0.9441137941020716
 40
0.9461661287177655
 40
0.9493423625349318
 40
0.9503124965767955
 40
0.9503124965767955
 40
0.9503124965767955
 40
0.9503124965767955
 10
393.1724438460035
 20
40.82155526465004
 30
0.0
 10
393.1715710084069
 20
40.82193536188525
 30
0.0
 10
393.1698417750525
 20
40.82268858917461
 30
0.0
 10
393.1604705943694
 20
40.82480507433477
 30
0.0
 10
393.141481683293
 20
40.8202565550131
 30
0.0
 10
393.0982459313051
 20
40.81572064747924
 30
0.0
 10
393.0060190831906
 20
40.80019864417415
 30
0.0
 10
392.8839741256563
 20
40.77269897760468
 30
0.0
 10
392.7557404922113
 20
40.75219155195182
 30
0.0
 10
392.6871842551514
 20
40.73248993331958
 30
0.0
 10
392.6545497633816
 20
40.72941695459463
 30
0.0
 10
392.6515296580768
 20
40.73216205159444
 30
0.0
 10
392.6488726680873
 20
40.73511695384968
 30
0.0
 10
392.6484505805626
 20
40.74197087191001
 30
0.0
 10
392.6463529833421
 20
40.76575091099507
 30
0.0
 10
392.6390080673604
 20
40.81535498028636
 30
0.0
 10
392.6191586112973
 20
40.89675535172231
 30
0.0
 10
392.5864021173568
 20
40.98452097442595
 30
0.0
 10
392.5445774522972
 20
41.0592687614847
 30
0.0
 10
392.5193949071418
 20
41.10029029595472
 30
0.0
 10
392.5061132326468
 20
41.11650842020773
 30
0.0
 10
392.504296539943
 20
41.11761071064333
 30
0.0
 10
392.5030052277209
 20
41.11809710974381
 30
0.0
 10
392.5027026100806
 20
41.11821110932152
 30
0.0
 11
393.1724438460035
 21
40.82155526465004
 31
0.0
 11
393.1697904168956
 21
40.82261176281576
 31
0.0
 11
393.1670822779092
 21
40.82326481561959
 31
0.0
 11
393.1441588388121
 21
40.82133339136832
 31
0.0
 11
393.1136649202758
 21
40.81715550013954
 31
0.0
 11
393.0369206381912
 21
40.80495073625955
 31
0.0
 11
392.8693853127139
 21
40.77153107319943
 31
0.0
 11
392.7434534304785
 21
40.74717138025858
 31
0.0
 11
392.6581812460806
 21
40.72976602799186
 31
0.0
 11
392.6549252230099
 21
40.72983798093841
 31
0.0
 11
392.6516625612275
 21
40.73213145272188
 31
0.0
 11
392.6491543899823
 21
40.73556890382041
 31
0.0
 11
392.6486377916474
 21
40.73883249830492
 31
0.0
 11
392.6475910312116
 21
40.75121247638191
 31
0.0
 11
392.6394533707921
 21
40.80741517640248
 31
0.0
 11
392.6206297532161
 21
40.88523679662195
 31
0.0
 11
392.5798640549888
 21
40.99244709305266
 31
0.0
 11
392.5395497132594
 21
41.06686044498934
 31
0.0
 11
392.5076538540861
 21
41.11462213565109
 31
0.0
 11
392.5062861071232
 21
41.11615228127175
 31
0.0
 11
392.5036053230761
 21
41.11785576539376
 31
0.0
 11
392.5027026100806
 21
41.11821110932152
 31
0.0
  0
HATCH
  5
15A
330
1F
100
AcDbEntity
  8
XR$1$STANDARD
  6
AUSGEZOGEN
 62
   255
370
    25
100
AcDbHatch
 10
0.0
 20
0.0
 30
0.0
210
0.0
220
0.0
230
1.0
  2
SOLID
 70
     1
 71
     0
 91
        1
 92
       18
 72
     0
 73
     1
 93
      130
 10
392.8633980003841
 20
40.6154241522694
 10
392.4840602189772
 20
40.6154241522694
 10
392.4829303702814
 20
40.61555435099303
 10
392.4814247468787
 20
40.61582338794801
 10
392.4805092976959
 20
40.61610057137526
 10
392.4796520885091
 20
40.61648024916078
 10
392.4782283082804
 20
40.61732402493833
 10
392.4743287005516
 20
40.62010667439253
 10
392.4688791469318
 20
40.62463532265497
 10
392.4511604668035
 20
40.64059105380181
 10
392.4415588887131
 20
40.64983795957701
 10
392.4320606226294
 20
40.65995947377743
 10
392.4174318803725
 20
40.67606866327417
 10
392.4091631184043
 20
40.68439921212747
 10
392.4005738083251
 20
40.69223675642442
 10
392.391543199347
 20
40.69969495637664
 10
392.3808341517923
 20
40.70770570311801
 10
392.3660265136058
 20
40.71784216538704
 10
392.337598949566
 20
40.73638746067502
 10
392.3055923804706
 20
40.75823866529505
 10
392.2681669017394
 20
40.7846231878413
 10
392.2399260652008
 20
40.80540876303402
 10
392.1961140523078
 20
40.83880278236818
 10
392.1720590725099
 20
40.85674015040512
 10
392.1619576652736
 20
40.86473258786738
 10
392.1547204942804
 20
40.87109706135796
 10
392.1528181455635
 20
40.87297258745994
 10
392.1521516153412
 20
40.87380842078352
 10
392.1516859418138
 20
40.8745604919956
 10
392.151268027012
 20
40.87545063770668
 10
392.1509106591806
 20
40.87650721331595
 10
392.1506465723427
 20
40.87770946741185
 10
392.1505186444335
 20
40.8789022713994
 10
392.1505231289456
 20
40.88005527166801
 10
392.1506516528047
 20
40.88116643250552
 10
392.1508928956239
 20
40.8822123649132
 10
392.1512279496258
 20
40.88316187401848
 10
392.1516537652232
 20
40.88403313165597
 10
392.1525839657417
 20
40.88546801103664
 10
392.1574764428105
 20
40.89194406887145
 10
392.1655042549995
 20
40.90144025066014
 10
392.187292665002
 20
40.92569734715732
 10
392.2028677689842
 20
40.94213656628457
 10
392.2173358395148
 20
40.95641615028887
 10
392.2327413356854
 20
40.97064417828981
 10
392.2491408461885
 20
40.98483462397194
 10
392.2665600089699
 20
40.99897199574911
 10
392.2844239103616
 20
41.01257422939865
 10
392.3024870706934
 20
41.02545507081631
 10
392.3207196241769
 20
41.03760576945326
 10
392.3390941893244
 20
41.04902077522171
 10
392.3576446692913
 20
41.0597306182875
 10
392.3768597548611
 20
41.07001213751152
 10
392.3968827479766
 20
41.07992345452109
 10
392.4177496968164
 20
41.08945720554356
 10
392.4386241811845
 20
41.09823666419598
 10
392.458205098867
 20
41.10574356297434
 10
392.4767606022894
 20
41.11214626269035
 10
392.4944947599722
 20
41.11757108090698
 10
392.4980114762881
 20
41.11853199416701
 10
392.4989263923889
 20
41.11865107665491
 10
392.499929918644
 20
41.11866414947762
 10
392.5010787884673
 20
41.11854364463273
 10
392.5050124008022
 20
41.11766016505094
 10
392.5142818802806
 20
41.11509433151817
 10
392.5244402355102
 20
41.11168172846724
 10
392.5360820890427
 20
41.1071110564552
 10
392.5508665097231
 20
41.10053704237352
 10
392.5803309198842
 20
41.08634833798209
 10
392.6121087891852
 20
41.07157022464959
 10
392.649466261117
 20
41.05513076786914
 10
392.6997651182472
 20
41.03404371614867
 10
392.7850272482584
 20
40.99908234116134
 10
392.8313053724563
 20
40.97945048564912
 10
392.9039342885039
 20
40.94728031563608
 10
392.9565525002386
 20
40.92422986222891
 10
393.0040888328139
 20
40.90445197248889
 10
393.0450512114174
 20
40.8873748425386
 10
393.0699714213742
 20
40.87627490126064
 10
393.0914213896463
 20
40.86594882157885
 10
393.116867936703
 20
40.85278680636353
 10
393.1491069650733
 20
40.83521518551467
 10
393.1678604466371
 20
40.82436409223514
 10
393.1763212226959
 20
40.819034752409
 10
393.1809585980371
 20
40.81565401879642
 10
393.1844525494101
 20
40.8126715032607
 10
393.1867296152856
 20
40.81040542898181
 10
393.1875766432497
 20
40.80936568631918
 10
393.1880968483052
 20
40.80855200435158
 10
393.1885120843189
 20
40.80769553019923
 10
393.1888548668422
 20
40.80671997640336
 10
393.1891031966837
 20
40.80563905295689
 10
393.1892348756941
 20
40.80449891114446
 10
393.1892395712305
 20
40.80334588033948
 10
393.1891170284888
 20
40.80220309596015
 10
393.1888658539148
 20
40.8010702088958
 10
393.1884806539078
 20
40.79994202359914
 10
393.1879617358346
 20
40.79883832138781
 10
393.1873653880197
 20
40.79786428109247
 10
393.1867425706035
 20
40.79706545456111
 10
393.1861117142635
 20
40.79642427895624
 10
393.1853802964326
 20
40.79584045401609
 10
393.1841708204595
 20
40.79508704742175
 10
393.1773881551674
 20
40.79167206865749
 10
393.1666085577169
 20
40.78683625921201
 10
393.1535862798917
 20
40.78171332314106
 10
393.1350348171525
 20
40.77527207271504
 10
393.0873848983045
 20
40.7595149166067
 10
393.0562385858987
 20
40.74942343820997
 10
393.0274489673818
 20
40.74091198918321
 10
393.0118349754575
 20
40.7359494166157
 10
393.0006455797781
 20
40.7318229689371
 10
392.9907666470029
 20
40.72759457075212
 10
392.9817113955877
 20
40.72313739375714
 10
392.9734307943382
 20
40.71848144258612
 10
392.9658943294185
 20
40.71366157955426
 10
392.9589942129876
 20
40.70865503677366
 10
392.9520337886395
 20
40.70294768428695
 10
392.944683778052
 20
40.69620125331767
 10
392.9365447428173
 20
40.6879058534989
 10
392.9242510473571
 20
40.67418091671941
 10
392.9066094745255
 20
40.6541778274804
 10
392.8958347874346
 20
40.64290432721892
 10
392.8795526062468
 20
40.62652171928205
 10
392.8738508246473
 20
40.62117802010233
 10
392.8695531659459
 20
40.61767001188541
 10
392.8681015577957
 20
40.61667518269656
 10
392.8671996219855
 20
40.61619967408557
 10
392.8664505484459
 20
40.61591256780454
 10
392.8655243661212
 20
40.61568260907674
 97
        0
 75
     0
 76
     1
 98
        0
  0
DIMENSION
  5
166
330
1F
100
AcDbEntity
  8
XR$1$STANDARD
  6
AUSGEZOGEN
 62
    94
370
    25
100
AcDbDimension
  2
*D6
 10
391.250506
 20
41.321437
 30
0.0
 11
390.728221
 21
41.380038
 31
0.0
 70
   160
  1
<>
 71
     5
 42
-1.0
  3
_DIMSTYLE_4
100
AcDbAlignedDimension
 13
390.200518
 23
40.888322
 33
0.0
 14
391.250506
 24
40.88841
 34
0.0
100
AcDbRotatedDimension
1001
ACAD
1000
DSTYLE
1002
{
1070
     3
1000
<>
1070
   372
1070
    25
1070
   371
1070
     0
1070
   178
1070
    94
1070
   177
1070
    94
1070
   176
1070
    94
1002
}
1001
NEM_ODX
1000
MASSLINIE
1002
{
1000
UTF_TYPE
1070
     6
1000
ODXVALUES
1070
     3
1070
     2
1070
   499
1040
0.1
1002
}
  0
DIMENSION
  5
172
330
1F
100
AcDbEntity
  8
XR$1$STANDARD
  6
AUSGEZOGEN
 62
    94
370
    25
100
AcDbDimension
  2
*D7
 10
390.000518
 20
41.122704
 30
0.0
 11
389.942671
 21
40.759072
 31
0.0
 70
   160
  1
<>
 71
     5
 42
-1.0
  3
_DIMSTYLE_5
100
AcDbAlignedDimension
 13
390.388731
 23
40.402704
 33
0.0
 14
390.72494
 24
41.122704
 34
0.0
 50
90.0
100
AcDbRotatedDimension
1001
ACAD
1000
DSTYLE
1002
{
1070
     3
1000
<>
1070
   372
1070
    25
1070
   371
1070
     0
1070
   178
1070
    94
1070
   177
1070
    94
1070
   176
1070
    94
1002
}
1001
NEM_ODX
1000
MASSLINIE
1002
{
1000
UTF_TYPE
1070
     6
1000
ODXVALUES
1070
     3
1070
     2
1070
   499
1040
0.1
1002
}
  0
DIMENSION
  5
17D
330
1F
100
AcDbEntity
  8
XR$1$STANDARD
  6
AUSGEZOGEN
 62
    94
370
    25
100
AcDbDimension
  2
*D8
 10
392.150506
 20
41.321437
 30
0.0
 11
392.669879
 21
41.358937
 31
0.0
 70
   160
  1
\W0.83;1.05
 71
     5
 42
-1.0
  3
_DIMSTYLE_3
100
AcDbAlignedDimension
 13
393.189252
 23
40.80375
 33
0.0
 14
392.150506
 24
40.879305
 34
0.0
 50
180.0
100
AcDbRotatedDimension
1001
ACAD
1000
DSTYLE
1002
{
1070
     3
1000
<>
1070
   372
1070
    25
1070
   371
1070
     0
1070
   178
1070
    94
1070
   177
1070
    94
1070
   176
1070
    94
1002
}
1001
NEM_ODX
1000
MASSLINIE
1002
{
1000
UTF_TYPE
1070
     6
1000
ODXVALUES
1070
     3
1070
     2
1070
   467
1040
0.1
1002
}
  0
DIMENSION
  5
189
330
1F
100
AcDbEntity
  8
XR$1$STANDARD
  6
AUSGEZOGEN
 62
    94
370
    25
100
AcDbDimension
  2
*D9
 10
393.389235
 20
41.118673
 30
0.0
 11
393.331387
 21
40.755032
 31
0.0
 70
   160
  1
<>
 71
     5
 42
-1.0
  3
_DIMSTYLE_6
100
AcDbAlignedDimension
 13
392.324294
 23
40.398655
 33
0.0
 14
392.499508
 24
41.118673
 34
0.0
 50
90.0
100
AcDbRotatedDimension
1001
ACAD
1000
DSTYLE
1002
{
1070
     3
1000
<>
1070
   372
1070
    25
1070
   371
1070
     0
1070
   178
1070
    94
1070
   177
1070
    94
1070
   176
1070
    94
1002
}
1001
NEM_ODX
1000
MASSLINIE
1002
{
1000
UTF_TYPE
1070
     6
1000
ODXVALUES
1070
     3
1070
     2
1070
   499
1040
0.1
1002
}
  0
VIEWPORT
  5
43
330
3F
100
AcDbEntity
 67
     1
  8
0
100
AcDbViewport
 10
0.098334
 20
0.105071
 30
0.0
 40
0.133083
 41
0.147002
 68
     1
 69
     1
 12
0.098334
 22
0.105071
 13
0.0
 23
0.0
 14
0.5
 24
0.5
 15
0.5
 25
0.5
 16
0.0
 26
0.0
 36
1.0
 17
0.0
 27
0.0
 37
0.0
 42
50.0
 43
0.0
 44
0.0
 45
0.147002
 50
0.0
 51
0.0
 72
   100
 90
   557152
  1

281
     0
 71
     1
 74
     0
110
0.0
120
0.0
130
0.0
111
1.0
121
0.0
131
0.0
112
0.0
122
1.0
132
0.0
 79
     0
146
0.0
170
     0
  0
LWPOLYLINE
  5
4A
330
3F
100
AcDbEntity
 67
     1
  8
STANDARD
  6
AUSGEZOGEN
 62
     7
370
    25
100
AcDbPolyline
 90
        5
 70
     1
 43
0.0
 10
0.0
 20
0.0
 10
0.297
 20
0.0
 10
0.297
 20
0.21
 10
0.0
 20
0.21
 10
0.0
 20
0.0
  0
LINE
  5
4B
330
3F
100
AcDbEntity
 67
     1
  8
STANDARD
  6
PUNKT2_S9
 62
     7
370
    18
100
AcDbLine
 10
0.087
 20
0.0
 30
0.0
 11
0.087
 21
0.21
 31
0.0
  0
LINE
  5
4C
330
3F
100
AcDbEntity
 67
     1
  8
STANDARD
  6
PUNKT2_S9
 62
     7
370
    18
100
AcDbLine
 10
0.087
 20
0.21
 30
0.0
 11
0.297
 21
0.21
 31
0.0
  0
LINE
  5
4D
330
3F
100
AcDbEntity
 67
     1
  8
STANDARD
  6
AUSGEZOGEN
 62
     7
370
    13
100
AcDbLine
 10
0.292226
 20
0.011803
 30
0.0
 11
0.292226
 21
0.004774
 31
0.0
  0
LINE
  5
4E
330
3F
100
AcDbEntity
 67
     1
  8
STANDARD
  6
AUSGEZOGEN
 62
     7
370
    13
100
AcDbLine
 10
0.292226
 20
0.004774
 30
0.0
 11
0.297
 21
0.0
 31
0.0
  0
HATCH
  5
4F
330
3F
100
AcDbEntity
 67
     1
  8
STANDARD
  6
AUSGEZOGEN
 62
   254
370
    25
100
AcDbHatch
 10
0.0
 20
0.0
 30
0.0
210
0.0
220
0.0
230
1.0
  2
SOLID
 70
     1
 71
     0
 91
        1
 92
        3
 72
     0
 73
     1
 93
        4
 10
0.2122455484661762
 20
0.0047744640000001
 10
0.292225536
 20
0.0047744640000001
 10
0.292225536
 20
0.0625043798138881
 10
0.2122455484661762
 20
0.0625043798138881
 97
        0
 75
     0
 76
     1
 98
        0
  0
HATCH
  5
50
330
3F
100
AcDbEntity
 67
     1
  8
STANDARD
  6
AUSGEZOGEN
 62
   254
370
    25
100
AcDbHatch
 10
0.0
 20
0.0
 30
0.0
210
0.0
220
0.0
230
1.0
  2
SOLID
 70
     1
 71
     0
 91
        1
 92
        3
 72
     0
 73
     1
 93
        4
 10
0.2122455484661762
 20
0.0637070863933439
 10
0.292225536
 20
0.0637070863933439
 10
0.292225536
 20
0.0859571581132799
 10
0.2122455484661762
 20
0.0859571581132799
 97
        0
 75
     0
 76
     1
 98
        0
  0
HATCH
  5
51
330
3F
100
AcDbEntity
 67
     1
  8
STANDARD
  6
AUSGEZOGEN
 62
   254
370
    25
100
AcDbHatch
 10
0.0
 20
0.0
 30
0.0
210
0.0
220
0.0
230
1.0
  2
SOLID
 70
     1
 71
     0
 91
        1
 92
        3
 72
     0
 73
     1
 93
        4
 10
0.2122455484661762
 20
0.0877612179824641
 10
0.292225536
 20
0.0877612179824641
 10
0.292225536
 20
0.1100112897024001
 10
0.2122455484661762
 20
0.1100112897024001
 97
        0
 75
     0
 76
     1
 98
        0
  0
HATCH
  5
52
330
3F
100
AcDbEntity
 67
     1
  8
STANDARD
  6
AUSGEZOGEN
 62
   250
370
    35
100
AcDbHatch
 10
0.0
 20
0.0
 30
0.0
210
0.0
220
0.0
230
1.0
  2
SOLID
 70
     1
 71
     0
 91
        1
 92
        3
 72
     0
 73
     1
 93
       12
 10
0.2889434369644332
 20
0.0956859461021599
 10
0.2889434369644332
 20
0.0964289433620013
 10
0.2877395086507164
 20
0.0964289433620013
 10
0.2877395086507164
 20
0.097248823838968
 10
0.2892591583205174
 20
0.097248823838968
 10
0.2892633349153246
 20
0.0979840319359505
 10
0.2867796656339455
 20
0.0979840319359505
 10
0.2867796656339455
 20
0.0939441040747113
 10
0.2893692352113237
 20
0.0939441040747113
 10
0.2893692352113237
 20
0.0947172433593504
 10
0.2877469948239984
 20
0.0947172433593504
 10
0.2877469948239984
 20
0.0956859461021599
 97
        0
 75
     0
 76
     1
 98
        0
  0
HATCH
  5
53
330
3F
100
AcDbEntity
 67
     1
  8
STANDARD
  6
AUSGEZOGEN
 62
   250
370
    35
100
AcDbHatch
 10
0.0
 20
0.0
 30
0.0
210
0.0
220
0.0
230
1.0
  2
SOLID
 70
     1
 71
     0
 91
        1
 92
       18
 72
     0
 73
     1
 93
        8
 10
0.2863091225502788
 20
0.0971435187656345
 10
0.2852621148700155
 20
0.0971435187656345
 10
0.2852621148700155
 20
0.0940913361537726
 10
0.2842908141857931
 20
0.0940913361537726
 10
0.2842908141857931
 20
0.0971435187656345
 10
0.283312589801252
 20
0.0971435187656345
 10
0.283312589801252
 20
0.0978934412795883
 10
0.2863091225502788
 20
0.0978934412795883
 97
        0
 75
     0
 76
     1
 98
        0
  0
HATCH
  5
54
330
3F
100
AcDbEntity
 67
     1
  8
STANDARD
  6
AUSGEZOGEN
 62
   250
370
    35
100
AcDbHatch
 10
0.0
 20
0.0
 30
0.0
210
0.0
220
0.0
230
1.0
  2
SOLID
 70
     1
 71
     0
 91
        1
 92
       18
 72
     0
 73
     1
 93
       12
 10
0.2805601509443408
 20
0.0941756875741633
 10
0.2805601509443408
 20
0.0977378824440497
 10
0.2827838489521003
 20
0.0977378824440497
 10
0.2827810490176353
 20
0.0970490068919112
 10
0.2814438767637951
 20
0.0970490068919112
 10
0.2814438767637951
 20
0.0963856912298663
 10
0.28249063272964
 20
0.0963856912298663
 10
0.28249063272964
 20
0.0956900939704606
 10
0.2814505471959021
 20
0.0956900939704606
 10
0.2814505471959021
 20
0.0948975050855639
 10
0.2828612899808082
 20
0.0948975050855639
 10
0.2828612899808082
 20
0.0941756875741633
 97
        0
 75
     0
 76
     1
 98
        0
  0
HATCH
  5
55
330
3F
100
AcDbEntity
 67
     1
  8
STANDARD
  6
AUSGEZOGEN
 62
   250
370
    35
100
AcDbHatch
 10
0.0
 20
0.0
 30
0.0
210
0.0
220
0.0
230
1.0
  2
SOLID
 70
     1
 71
     0
 91
        2
 92
        3
 72
     0
 73
     1
 93
       19
 10
0.2782330818120461
 20
0.0970373266548949
 10
0.2779410355954963
 20
0.0970373266548949
 10
0.2779410355954963
 20
0.0962358275456974
 10
0.2782208627861683
 20
0.0962358275456974
 10
0.2783788552027672
 20
0.0962414392289148
 10
0.2785096860967421
 20
0.0962585634418166
 10
0.2786152343312335
 20
0.0962876339292811
 10
0.2786973787693794
 20
0.0963290844361848
 10
0.2787579982743235
 20
0.0963833487074044
 10
0.2787989717092045
 20
0.0964508604878163
 10
0.2788221779371627
 20
0.0965320535222991
 10
0.278829495821341
 20
0.0966273615557281
 10
0.2788227280829644
 20
0.0967234762715976
 10
0.2788009670218259
 20
0.096806764113025
 10
0.2787620258689067
 20
0.0968772286488785
 10
0.278703717855192
 20
0.0969348734480242
 10
0.2786238562116647
 20
0.0969797020793317
 10
0.2785202541693083
 20
0.0970117181116675
 10
0.278390724959108
 20
0.0970309251138991
 97
        0
 92
       18
 72
     0
 73
     1
 93
       54
 10
0.278947618250803
 20
0.0942598802318865
 10
0.2788951019933484
 20
0.0943405404808631
 10
0.2788483445408232
 20
0.0944121715220416
 10
0.2788055344744031
 20
0.0944779780073671
 10
0.2787648603752589
 20
0.0945411645887839
 10
0.2787245108245682
 20
0.094604935918238
 10
0.278682674403505
 20
0.0946724966476729
 10
0.2786375396932426
 20
0.0947470514290343
 10
0.2785872952749554
 20
0.0948318049142665
 10
0.2784484874034263
 20
0.0950639266082175
 10
0.2783369157094076
 20
0.0952469136985342
 10
0.2782483606624283
 20
0.0953863711646668
 10
0.2781786027320181
 20
0.095487903986066
 10
0.27812342238771
 20
0.0955571171421842
 10
0.2780786000990327
 20
0.0955996156124716
 10
0.2780399163355194
 20
0.0956210043763803
 10
0.2780031515666973
 20
0.0956268884133605
 10
0.2779471451084359
 20
0.0956268884133605
 10
0.2779471451084359
 20
0.0942598802318865
 10
0.2771211053971631
 20
0.0942598802318865
 10
0.2771211053971631
 20
0.0976649516983722
 10
0.2784381669119475
 20
0.0976649516983722
 10
0.2785759347923835
 20
0.0976618559545506
 10
0.278712850077626
 20
0.0976517847132728
 10
0.2788469670793069
 20
0.0976335619598195
 10
0.2789763401090626
 20
0.0976060116794723
 10
0.2790990234785262
 20
0.0975679578575118
 10
0.2792130714993307
 20
0.0975182244792192
 10
0.2793165384831106
 20
0.097455635529876
 10
0.2794074787415005
 20
0.097379014994762
 10
0.2794847285019669
 20
0.0972940090349057
 10
0.2795493243324035
 20
0.0972065817804457
 10
0.2796019917690324
 20
0.0971166652043949
 10
0.2796434563480785
 20
0.0970241912797654
 10
0.2796744436057636
 20
0.0969290919795715
 10
0.2796956790783099
 20
0.0968312992768258
 10
0.2797078883019405
 20
0.0967307451445402
 10
0.279711796812879
 20
0.0966273615557281
 10
0.2796966883880656
 20
0.0964527247052471
 10
0.2796538408303255
 20
0.0962893824103982
 10
0.2795869707147115
 20
0.0961398800385601
 10
0.2794997946162763
 20
0.0960067629571131
 10
0.2793960291100726
 20
0.095892576533437
 10
0.27927939077115
 20
0.0957998661349102
 10
0.2791535961745643
 20
0.0957311771289129
 10
0.2790223618953651
 20
0.0956890548828243
 10
0.2791251651304598
 20
0.095558885733081
 10
0.279253755327886
 20
0.0953767203942626
 10
0.2793973037420723
 20
0.0951616315778189
 10
0.2795449816274447
 20
0.0949326919951957
 10
0.279685960238433
 20
0.0947089743578435
 10
0.2798094108294641
 20
0.0945095513772095
 10
0.2799045046549669
 20
0.0943534957647406
 10
0.2799604129693686
 20
0.0942598802318865
 97
        0
 75
     0
 76
     1
 98
        0
  0
HATCH
  5
56
330
3F
100
AcDbEntity
 67
     1
  8
STANDARD
  6
AUSGEZOGEN
 62
   250
370
    35
100
AcDbHatch
 10
0.0
 20
0.0
 30
0.0
210
0.0
220
0.0
230
1.0
  2
SOLID
 70
     1
 71
     0
 91
        1
 92
       18
 72
     0
 73
     1
 93
       98
 10
0.2756104952301641
 20
0.0941961432817146
 10
0.2754307322293747
 20
0.094200436816114
 10
0.2752597969319265
 20
0.0942141384227438
 10
0.2750977626816901
 20
0.0942384796067528
 10
0.2749447028225384
 20
0.0942746918732888
 10
0.2748006906983408
 20
0.0943240067274995
 10
0.2746657996529693
 20
0.0943876556745344
 10
0.2745401030302962
 20
0.0944668702195401
 10
0.2744236741741939
 20
0.0945628818676656
 10
0.2742994967177194
 20
0.0946910901036956
 10
0.2741925926170025
 20
0.0948287511320524
 10
0.2741027410756746
 20
0.094976014726822
 10
0.274029721297361
 20
0.0951330306620887
 10
0.2739733124856908
 20
0.095299948711939
 10
0.2739332938442913
 20
0.0954769186504578
 10
0.2739094445767908
 20
0.0956640902517294
 10
0.2739015438868186
 20
0.0958616132898405
 10
0.2739053881884871
 20
0.0960270960327781
 10
0.2739171668840776
 20
0.0961839340041547
 10
0.2739372486594661
 20
0.0963327804979352
 10
0.2739660022005304
 20
0.0964742888080867
 10
0.274003796193147
 20
0.0966091122285752
 10
0.2740509993231905
 20
0.0967379040533665
 10
0.274107980276541
 20
0.0968613175764268
 10
0.2741751077390716
 20
0.0969800060917217
 10
0.2742961709852632
 20
0.0971496671456179
 10
0.2744387740045926
 20
0.0972992871869063
 10
0.2746005904598258
 20
0.0974280708679423
 10
0.2747792940137302
 20
0.0975352228410821
 10
0.2749725583290752
 20
0.0976199477586817
 10
0.2751780570686269
 20
0.0976814502730977
 10
0.2753934638951517
 20
0.0977189350366868
 10
0.2756164524714166
 20
0.0977316067018036
 10
0.2757548915326446
 20
0.0977259981899021
 10
0.2758934958725001
 20
0.0977099936394198
 10
0.2760294904596937
 20
0.0976848245281939
 10
0.276160100262925
 20
0.0976517223340581
 10
0.2762825502509025
 20
0.0976119185348491
 10
0.2763940653923288
 20
0.0975666446084012
 10
0.276491870655912
 20
0.0975171320325499
 10
0.2765731910103529
 20
0.0974646122851309
 10
0.2761943328412569
 20
0.0969178388453614
 10
0.27612596567368
 20
0.096955554298612
 10
0.2760562912990799
 20
0.096989447130457
 10
0.2759857398934691
 20
0.0970191455959912
 10
0.2759147416328545
 20
0.0970442779503089
 10
0.2758437266932458
 20
0.0970644724485034
 10
0.2757731252506539
 20
0.097079357345669
 10
0.2757033674810857
 20
0.0970885608968991
 10
0.2756348835605538
 20
0.097091711357289
 10
0.2755571234338067
 20
0.0970874819517385
 10
0.2754786431969718
 20
0.0970753271472693
 10
0.275401037696879
 20
0.0970560470621545
 10
0.2753259017803524
 20
0.097030441814667
 10
0.2752548302942217
 20
0.0969993115230805
 10
0.2751894180853135
 20
0.0969634563056666
 10
0.2751312600004573
 20
0.0969236762806994
 10
0.2750819508864782
 20
0.0968807715664524
 10
0.2750221026393219
 20
0.0968110312558096
 10
0.2749726248659994
 20
0.0967322561746697
 10
0.2749327807045963
 20
0.0966441659120038
 10
0.2749018332931983
 20
0.0965464800567847
 10
0.2748790457698885
 20
0.0964389181979831
 10
0.2748636812727515
 20
0.0963211999245718
 10
0.2748550029398748
 20
0.0961930448255214
 10
0.2748522739093414
 20
0.0960541724898045
 10
0.2748541158608007
 20
0.0958803659913068
 10
0.2748600311466164
 20
0.0957259973030577
 10
0.2748706039139431
 20
0.0955895306557357
 10
0.2748864183099379
 20
0.0954694302800168
 10
0.2749080584817555
 20
0.0953641604065797
 10
0.2749361085765519
 20
0.0952721852661021
 10
0.2749711527414836
 20
0.0951919690892618
 10
0.2750137751237055
 20
0.0951219761067356
 10
0.2750702226072119
 20
0.0950518418292197
 10
0.2751328865665066
 20
0.0949906097187393
 10
0.2752021315541311
 20
0.0949384181872699
 10
0.2752783221226334
 20
0.0948954056467882
 10
0.275361822824558
 20
0.0948617105092702
 10
0.2754529982124502
 20
0.0948374711866919
 10
0.2755522128388551
 20
0.094822826091029
 10
0.2756598312563187
 20
0.0948179136342575
 10
0.2757412878832368
 20
0.0948203252070348
 10
0.2758188179727931
 20
0.0948279557115744
 10
0.2758937311719498
 20
0.0948413988271856
 10
0.2759673371276673
 20
0.0948612482331785
 10
0.2760409454869092
 20
0.094888097608862
 10
0.2761158658966349
 20
0.0949225406335473
 10
0.2761934080038069
 20
0.0949651709865432
 10
0.2762748814553874
 20
0.0950165823471604
 10
0.2766540426140613
 20
0.0945316708334832
 10
0.2765431792097737
 20
0.0944513261652687
 10
0.2764288981230963
 20
0.0943823716382514
 10
0.2763101110496979
 20
0.0943245984281517
 10
0.276185729685242
 20
0.0942777977106935
 10
0.2760546657253948
 20
0.0942417606615987
 10
0.2759158308658225
 20
0.0942162784565889
 10
0.2757681368021904
 20
0.0942011422713868
 97
        0
 75
     0
 76
     1
 98
        0
  0
HATCH
  5
57
330
3F
100
AcDbEntity
 67
     1
  8
STANDARD
  6
AUSGEZOGEN
 62
   250
370
    35
100
AcDbHatch
 10
0.0
 20
0.0
 30
0.0
210
0.0
220
0.0
230
1.0
  2
SOLID
 70
     1
 71
     0
 91
        1
 92
       18
 72
     0
 73
     1
 93
       42
 10
0.2724603984264002
 20
0.0941885343638554
 10
0.2717973873077262
 20
0.0956444396876938
 10
0.2717370979017947
 20
0.0957815575714209
 10
0.2716712517507515
 20
0.095936738140639
 10
0.2716040391968263
 20
0.0960987791477495
 10
0.2715396505822484
 20
0.0962564783451533
 10
0.2714822762492515
 20
0.0963986334852504
 10
0.2714361065400615
 20
0.0965140423204421
 10
0.2714053317969125
 20
0.09659150260313
 10
0.2713941423620348
 20
0.0966198120857143
 10
0.2713955550782566
 20
0.0965835838032784
 10
0.2713993341904312
 20
0.0964860234198549
 10
0.2714047911438132
 20
0.0963438176312745
 10
0.271411237383663
 20
0.0961736531333658
 10
0.2714179843552354
 20
0.0959922166219587
 10
0.271424343503789
 20
0.0958161947928823
 10
0.2714296262745802
 20
0.0956622743419653
 10
0.2714331441128685
 20
0.0955471419650383
 10
0.2714525432148637
 20
0.0941885343638554
 10
0.2706206472588638
 20
0.0941885343638554
 10
0.2706206472588638
 20
0.0977507292337417
 10
0.271589350001674
 20
0.0977507292337417
 10
0.2722779707318074
 20
0.0963792911892493
 10
0.2723376827944946
 20
0.0962532503225871
 10
0.2723978248875244
 20
0.0961111814893025
 10
0.2724558105469111
 20
0.0959632045777366
 10
0.2725090533086739
 20
0.0958194394762326
 10
0.2725549667088311
 20
0.095690006073133
 10
0.2725909642833974
 20
0.0955850242567801
 10
0.2726144595683915
 20
0.0955146139155174
 10
0.2726228660998297
 20
0.0954888949376876
 10
0.2726203524152554
 20
0.0955195439268083
 10
0.2726137254286484
 20
0.0956025072167487
 10
0.2726043562406865
 20
0.0957243092913735
 10
0.2725936159520481
 20
0.0958714746345497
 10
0.2725828756634094
 20
0.0960305277301419
 10
0.2725735064754486
 20
0.0961879930620159
 10
0.2725668794888419
 20
0.0963303951140383
 10
0.2725643658042666
 20
0.0964442583700744
 10
0.272551281315849
 20
0.0977507292337417
 10
0.2733698876827933
 20
0.0977507292337417
 10
0.2733698876827933
 20
0.0941885343638554
 97
        0
 75
     0
 76
     1
 98
        0
  0
HATCH
  5
58
330
3F
100
AcDbEntity
 67
     1
  8
STANDARD
  6
AUSGEZOGEN
 62
   250
370
    35
100
AcDbHatch
 10
0.0
 20
0.0
 30
0.0
210
0.0
220
0.0
230
1.0
  2
SOLID
 70
     1
 71
     0
 91
        2
 92
        3
 72
     0
 73
     1
 93
       32
 10
0.2681490507928431
 20
0.0972424060795232
 10
0.2679540053030051
 20
0.0972207626665909
 10
0.2677894453536135
 20
0.0971563706106058
 10
0.2676539902845232
 20
0.0970500371857842
 10
0.2675462594355904
 20
0.096902569666343
 10
0.2674648721466716
 20
0.0967147753264991
 10
0.2674084477576228
 20
0.0964874614404697
 10
0.2673756056082991
 20
0.0962214352824712
 10
0.2673649650385563
 20
0.09591750412672
 10
0.2673767499720779
 20
0.0955895934792523
 10
0.2674123712905805
 20
0.0953206933661675
 10
0.2674722287709676
 20
0.0951060913890929
 10
0.2675567221901449
 20
0.0949410751496557
 10
0.2676662513250161
 20
0.0948209322494836
 10
0.2678012159524876
 20
0.0947409502902027
 10
0.2679620158494612
 20
0.0946964168734415
 10
0.2681490507928431
 20
0.0946826196008258
 10
0.2683233479878797
 20
0.0946983071791121
 10
0.2684762253492229
 20
0.0947482350652426
 10
0.2686071219819823
 20
0.0948367009861263
 10
0.2687154769912671
 20
0.0949680026686709
 10
0.2688007294821885
 20
0.095146437839785
 10
0.2688623185598519
 20
0.0953763042263772
 10
0.2688996833293713
 20
0.0956618995553559
 10
0.2689122628958528
 20
0.0960075215536292
 10
0.2689036510816911
 20
0.0962817399258884
 10
0.2688759222820943
 20
0.0965254375424465
 10
0.2688262364613899
 20
0.0967367522373656
 10
0.268751753583911
 20
0.0969138218447068
 10
0.2686496336139862
 20
0.0970547841985313
 10
0.2685170365159469
 20
0.0971577771329011
 10
0.2683511222541231
 20
0.097220938481878
 97
        0
 92
       18
 72
     0
 73
     1
 93
       32
 10
0.2681976744050393
 20
0.0940165537256826
 10
0.2677700560098616
 20
0.0940530565560078
 10
0.2673936343956178
 20
0.0941589254453645
 10
0.2670702030912723
 20
0.0943287009913267
 10
0.2668015556257922
 20
0.0945569237914665
 10
0.2665894855281447
 20
0.0948381344433575
 10
0.2664357863272953
 20
0.0951668735445722
 10
0.2663422515522113
 20
0.0955376816926836
 10
0.2663106747318573
 20
0.0959450994852644
 10
0.2663433152067771
 20
0.096388388546059
 10
0.2664391212884302
 20
0.0967799264769885
 10
0.2665949199621546
 20
0.097117446610102
 10
0.2668075382132893
 20
0.0973986822774482
 10
0.2670738030271725
 20
0.0976213668110768
 10
0.2673905413891413
 20
0.0977832335430361
 10
0.2677545802845349
 20
0.0978820158053764
 10
0.2681627466986926
 20
0.0979154469301454
 10
0.2685501409512465
 20
0.0978855436977954
 10
0.2689025285908825
 20
0.0977958865140851
 10
0.2692147790153133
 20
0.0976465541490196
 10
0.2694817616222515
 20
0.0974376253726078
 10
0.2696983458094075
 20
0.0971691789548555
 10
0.2698594009744936
 20
0.0968412936657707
 10
0.2699597965152243
 20
0.0964540482753591
 10
0.2699944018293099
 20
0.0960075215536292
 10
0.269966140077295
 20
0.0955814292438819
 10
0.2698814621846845
 20
0.0951960432471634
 10
0.2697405291966324
 20
0.0948563277399961
 10
0.269543502158288
 20
0.0945672468989008
 10
0.269290542114805
 20
0.0943337649004009
 10
0.2689818101113353
 20
0.0941608459210162
 10
0.268617467193029
 20
0.0940534541372697
 97
        0
 75
     0
 76
     1
 98
        0
  0
HATCH
  5
59
330
3F
100
AcDbEntity
 67
     1
  8
STANDARD
  6
AUSGEZOGEN
 62
   250
370
    35
100
AcDbHatch
 10
0.0
 20
0.0
 30
0.0
210
0.0
220
0.0
230
1.0
  2
SOLID
 70
     1
 71
     0
 91
        1
 92
        3
 72
     0
 73
     1
 93
       98
 10
0.2648816160187031
 20
0.0944584548883614
 10
0.2647375085668944
 20
0.094464938369162
 10
0.2646030245302411
 20
0.0944844516491256
 10
0.2644779735934122
 20
0.0945170889845954
 10
0.2643621654410805
 20
0.0945629446319159
 10
0.2642554097579163
 20
0.0946221128474288
 10
0.2641575162285893
 20
0.0946946878874785
 10
0.2640682945377723
 20
0.0947807640084078
 10
0.2639875543701361
 20
0.0948804354665607
 10
0.2639312065691071
 20
0.0949718432117103
 10
0.2638839882592361
 20
0.0950769782147264
 10
0.2638454012193188
 20
0.0951986465615141
 10
0.2638149472281472
 20
0.0953396543379801
 10
0.26379212806452
 20
0.0955028076300302
 10
0.26377644550723
 20
0.0956909125235702
 10
0.2637674013350731
 20
0.0959067751045066
 10
0.2637644973268436
 20
0.0961532014587451
 10
0.2637690287205053
 20
0.0963570685854552
 10
0.2637828774807127
 20
0.0965404775426318
 10
0.2638064254763024
 20
0.096704783953719
 10
0.2638400545761144
 20
0.0968513434421625
 10
0.2638841466489809
 20
0.0969815116314068
 10
0.2639390835637417
 20
0.0970966441448982
 10
0.2640052471892325
 20
0.0971980966060814
 10
0.2640830193942896
 20
0.0972872246384006
 10
0.2641533151934125
 20
0.0973486142631
 10
0.2642355542171739
 20
0.0974047222732473
 10
0.2643273886331954
 20
0.0974546537024506
 10
0.264426470609099
 20
0.0974975135843159
 10
0.2645304523125097
 20
0.0975324069524502
 10
0.2646369859110506
 20
0.097558438840462
 10
0.2647437235723448
 20
0.0975747142819565
 10
0.2648483174640138
 20
0.0975803383105425
 10
0.264934695210401
 20
0.0975766304482616
 10
0.2650240759403996
 20
0.0975656154205453
 10
0.265115920864247
 20
0.0975474560660833
 10
0.2652096911921823
 20
0.0975223152235665
 10
0.2653048481344445
 20
0.0974903557316836
 10
0.2654008529012708
 20
0.0974517404291257
 10
0.2654971667029006
 20
0.097406632154582
 10
0.2655932507495724
 20
0.0973551937467433
 10
0.2660731722579592
 20
0.0980468707871392
 10
0.2659696710603918
 20
0.098110404751996
 10
0.2658451896917732
 20
0.0981717861069978
 10
0.2657026762188549
 20
0.0982290673429275
 10
0.2655450787083835
 20
0.0982803009505688
 10
0.26537534522711
 20
0.0983235394207047
 10
0.2651964238417848
 20
0.0983568352441174
 10
0.2650112626191561
 20
0.0983782409115916
 10
0.2648228096259765
 20
0.0983858089139084
 10
0.2645210323258458
 20
0.0983685157078403
 10
0.2642315144775159
 20
0.0983175919513505
 10
0.2639569881857246
 20
0.0982344714370107
 10
0.2637001855552065
 20
0.0981205879573916
 10
0.2634638386906999
 20
0.0979773753050648
 10
0.2632506796969422
 20
0.0978062672726022
 10
0.2630634406786679
 20
0.0976086976525754
 10
0.2629048537406145
 20
0.0973861002375547
 10
0.2628168350267648
 20
0.0972309734213702
 10
0.2627416187970609
 20
0.097069455345928
 10
0.2626788762877798
 20
0.0969002524059621
 10
0.2626282787351996
 20
0.0967220709962074
 10
0.2625894973755979
 20
0.0965336175113965
 10
0.262562203445253
 20
0.0963335983462644
 10
0.2625460681804418
 20
0.096120719895546
 10
0.2625407628174423
 20
0.0958936885539754
 10
0.2625514384871201
 20
0.0956279297408826
 10
0.262583562159052
 20
0.0953771386038691
 10
0.2626372788275924
 20
0.0951409225583908
 10
0.2627127334870913
 20
0.0949188890199043
 10
0.2628100711319015
 20
0.0947106454038656
 10
0.2629294367563755
 20
0.0945157991257307
 10
0.2630709753548626
 20
0.0943339576009552
 10
0.2632348319217169
 20
0.0941647282449958
 10
0.2633756783450042
 20
0.0940471652476735
 10
0.2635299323120628
 20
0.093946674948349
 10
0.2636989822216558
 20
0.0938628265701316
 10
0.2638842164725407
 20
0.0937951893361315
 10
0.2640870234634795
 20
0.0937433324694583
 10
0.2643087915932313
 20
0.0937068251932223
 10
0.264550909260556
 20
0.093685236730534
 10
0.2648147648642156
 20
0.0936781363045018
 10
0.2650179075593531
 20
0.0936843926478173
 10
0.2652094769630123
 20
0.0937034138656039
 10
0.2653906347416093
 20
0.0937355782396219
 10
0.265562542561556
 20
0.0937812640516327
 10
0.26572636208927
 20
0.0938408495833961
 10
0.2658832549911638
 20
0.093914713116673
 10
0.2660343829336516
 20
0.094003232933224
 10
0.26618090758315
 20
0.0941067873148089
 10
0.2657042956532372
 20
0.094716541411423
 10
0.2655990235765706
 20
0.0946514378367311
 10
0.265497945438316
 20
0.0945968480004178
 10
0.2653993124296021
 20
0.0945522068560513
 10
0.2653013757415581
 20
0.0945169493572012
 10
0.2652023865653164
 20
0.0944905104574384
 10
0.2651005960920063
 20
0.094472325110331
 10
0.2649942555127582
 20
0.0944618282694488
 97
        0
 75
     0
 76
     1
 98
        0
  0
HATCH
  5
5A
330
3F
100
AcDbEntity
 67
     1
  8
STANDARD
  6
AUSGEZOGEN
 62
    53
370
    25
100
AcDbHatch
 10
0.0
 20
0.0
 30
0.0
210
0.0
220
0.0
230
1.0
  2
SOLID
 70
     1
 71
     0
 91
        1
 92
        3
 72
     0
 73
     1
 93
      101
 10
0.2629867499254281
 20
0.1000687201445359
 10
0.2636754988884832
 20
0.0998679773490617
 10
0.2641172773709195
 20
0.0997495897796271
 10
0.2645740499137575
 20
0.0996383903263935
 10
0.2650570550491427
 20
0.0995320102546613
 10
0.2655646324364245
 20
0.0994313543361307
 10
0.2660782150145433
 20
0.0993404713126554
 10
0.2665969862037906
 20
0.0992596312217906
 10
0.2671241767649068
 20
0.0991884502525586
 10
0.2676601142068637
 20
0.0991270494858042
 10
0.2682097704331412
 20
0.0990751427870442
 10
0.26879165709761
 20
0.0990314574747842
 10
0.2694151899087989
 20
0.0989960541272905
 10
0.2700842765469254
 20
0.0989694825704436
 10
0.2707391884167309
 20
0.0989543446163897
 10
0.2713691640552877
 20
0.0989506483567722
 10
0.2720025861828048
 20
0.0989581671691934
 10
0.2726750901989397
 20
0.0989776006308708
 10
0.2733977325629318
 20
0.0990101110571637
 10
0.2741476699469034
 20
0.0990551650080409
 10
0.274885797994912
 20
0.099110721704049
 10
0.2756124660293087
 20
0.0991766244861718
 10
0.2763291220065273
 20
0.0992528416105102
 10
0.2770371501148964
 20
0.0993393705141623
 10
0.2777365309695484
 20
0.0994360786477075
 10
0.2784322984174235
 20
0.099543629370015
 10
0.2791540131703339
 20
0.09966682757102
 10
0.2799117881013453
 20
0.0998079405332106
 10
0.2806697799953697
 20
0.0999603662415084
 10
0.2813619734641195
 20
0.1001105696617055
 10
0.2820165468577527
 20
0.1002638694263171
 10
0.2826668401105237
 20
0.1004276017201306
 10
0.2833136392526778
 20
0.1006019261401104
 10
0.2839571100367635
 20
0.1007868840265068
 10
0.2846017607475027
 20
0.1009838168679533
 10
0.2852486572199147
 20
0.1011931402864571
 10
0.2858778090847118
 20
0.1014081260981192
 10
0.2864500988253476
 20
0.1016148601882142
 10
0.2869779894792462
 20
0.1018167817777339
 10
0.2874748901603749
 20
0.1020182218241304
 10
0.2879709217311259
 20
0.1022310629106108
 10
0.288470722150395
 20
0.1024573844562743
 10
0.2889785083689476
 20
0.1026994525725258
 10
0.2895976687918762
 20
0.1030087419370394
 10
0.2902444032785785
 20
0.1033407731773614
 10
0.2904415650539716
 20
0.107558511416534
 10
0.290165131439799
 20
0.1072039007271073
 10
0.2899971528276841
 20
0.1070025806205345
 10
0.2898450739542721
 20
0.1068346177755323
 10
0.2896616847431214
 20
0.1066475385461766
 10
0.2894055797734166
 20
0.106403449245202
 10
0.2890153951326927
 20
0.1060478729424501
 10
0.2887461467317974
 20
0.1058146889518949
 10
0.2885173746235234
 20
0.1056291271602325
 10
0.2882579306115052
 20
0.1054329054191071
 10
0.2878960294717714
 20
0.1051752152274188
 10
0.2873927605403469
 20
0.1048311211877817
 10
0.2869998012267685
 20
0.1045745826422761
 10
0.286658194437877
 20
0.1043636674856621
 10
0.286321719765772
 20
0.104168707719088
 10
0.2859108623922048
 20
0.1039446002237492
 10
0.2852834081629032
 20
0.1036190733800093
 10
0.2847409052260724
 20
0.1033477574033656
 10
0.2843316245547228
 20
0.1031543443163765
 10
0.2838788113067312
 20
0.1029539609146372
 10
0.28313203794251
 20
0.1026407141193489
 10
0.2823949439237829
 20
0.1023420924101986
 10
0.2818186729954054
 20
0.1021200390139106
 10
0.2813167190999293
 20
0.101938062048547
 10
0.2808428428450965
 20
0.1017781236750103
 10
0.2801629328849243
 20
0.1015643664825921
 10
0.2793384345984948
 20
0.1013140493781938
 10
0.2789372841536664
 20
0.1012018281343417
 10
0.2784963865842947
 20
0.1010912999697475
 10
0.2775763133134558
 20
0.1008788485369799
 10
0.2765005278779236
 20
0.1006335794882542
 10
0.2758806946688772
 20
0.1005028403923351
 10
0.2753451949786844
 20
0.1004008312953224
 10
0.2748183900764347
 20
0.1003123150462342
 10
0.274149774253646
 20
0.1002133949532407
 10
0.273375766934525
 20
0.1001103723005544
 10
0.2727769149698037
 20
0.1000411891350504
 10
0.2722162365023976
 20
0.0999880315675513
 10
0.2715552713086138
 20
0.0999380756712031
 10
0.2708167238988723
 20
0.0998942311558354
 10
0.2700826545628037
 20
0.0998624172065925
 10
0.2694516713564656
 20
0.0998453720211292
 10
0.2689506927920906
 20
0.0998421546271029
 10
0.2684815686292757
 20
0.0998502859623004
 10
0.2679472490099931
 20
0.0998715680073342
 10
0.2672822559546592
 20
0.0999110805393665
 10
0.2666504948563607
 20
0.0999588277935826
 10
0.2661545277777863
 20
0.100006630435635
 10
0.2657247008423177
 20
0.1000584394258317
 10
0.2653257835860934
 20
0.1001170961603441
 10
0.2649462712079451
 20
0.100183427938143
 10
0.2645841737096692
 20
0.1002572130041312
 10
0.2642378833844616
 20
0.1003382556221153
 10
0.263886825517075
 20
0.1004315409806113
 10
0.2634435487296747
 20
0.1005622078219221
 10
0.262962903341608
 20
0.100712577907666
 97
        0
 75
     0
 76
     1
 98
        0
  0
HATCH
  5
5B
330
3F
100
AcDbEntity
 67
     1
  8
STANDARD
  6
AUSGEZOGEN
 62
   250
370
    25
100
AcDbHatch
 10
0.0
 20
0.0
 30
0.0
210
0.0
220
0.0
230
1.0
  2
SOLID
 70
     1
 71
     0
 91
        1
 92
        3
 72
     0
 73
     1
 93
      150
 10
0.262957256143548
 20
0.0924893300471174
 10
0.262957256143548
 20
0.0912555662346772
 10
0.2629578988583471
 20
0.0912261110324326
 10
0.262959825779301
 20
0.0911967118998394
 10
0.2629630332384062
 20
0.0911674247998176
 10
0.2629675151300813
 20
0.0911383054820266
 10
0.2629732629227913
 20
0.0911094093767433
 10
0.2629802656752861
 20
0.0910807914893458
 10
0.2629885100574277
 20
0.0910525062956097
 10
0.2629979803755668
 20
0.0910246076380086
 10
0.2630086586024145
 20
0.0909971486232233
 10
0.2630205244113589
 20
0.0909701815210487
 10
0.2630335552151586
 20
0.0909437576648971
 10
0.2630477262089373
 20
0.0909179273540797
 10
0.2630630104174034
 20
0.0908927397580617
 10
0.2630793787461974
 20
0.0908682428228638
 10
0.2630968000372746
 20
0.0908444831797943
 10
0.2631152411282176
 20
0.0908215060566841
 10
0.263134666915362
 20
0.0907993551917932
 10
0.2631550404206173
 20
0.0907780727505518
 10
0.2631763228618587
 20
0.0907576992452963
 10
0.2631984737267498
 20
0.0907382734581519
 10
0.2632214508498598
 20
0.0907198323672088
 10
0.2632452104929296
 20
0.0907024110761314
 10
0.2632697074281275
 20
0.0906860427473376
 10
0.2632948950241453
 20
0.0906707585388716
 10
0.2633207253349626
 20
0.0906565875450929
 10
0.2633471491911143
 20
0.0906435567412935
 10
0.2633741162932889
 20
0.0906316909323489
 10
0.2634015753080742
 20
0.0906210127055013
 10
0.2634294739656755
 20
0.0906115423873623
 10
0.2634577591594113
 20
0.0906032980052203
 10
0.2634863770468088
 20
0.0905962952527256
 10
0.2635152731520924
 20
0.0905905474600157
 10
0.263544392469883
 20
0.0905860655683404
 10
0.2635736795699053
 20
0.0905828581092354
 10
0.2636030787024981
 20
0.0905809311882816
 10
0.2636325339047431
 20
0.0905802884734823
 10
0.2636619891069875
 20
0.0905809311882816
 10
0.2636913882395809
 20
0.0905828581092354
 10
0.2637206753396028
 20
0.0905860655683404
 10
0.2637497946573933
 20
0.0905905474600157
 10
0.2637786907626769
 20
0.0905962952527256
 10
0.2638073086500745
 20
0.0906032980052203
 10
0.2638355938438108
 20
0.0906115423873623
 10
0.2638634925014116
 20
0.0906210127055013
 10
0.2638909515161968
 20
0.0906316909323489
 10
0.2639179186183713
 20
0.0906435567412935
 10
0.263944342474523
 20
0.0906565875450929
 10
0.2639701727853404
 20
0.0906707585388716
 10
0.2639953603813585
 20
0.0906860427473376
 10
0.2640198573165565
 20
0.0907024110761314
 10
0.2640436169596257
 20
0.0907198323672088
 10
0.264066594082736
 20
0.0907382734581519
 10
0.264088744947627
 20
0.0907576992452963
 10
0.2641100273888684
 20
0.0907780727505518
 10
0.2641304008941237
 20
0.0907993551917932
 10
0.2641498266812681
 20
0.0908215060566841
 10
0.2641682677722116
 20
0.0908444831797943
 10
0.2641856890632889
 20
0.0908682428228638
 10
0.2642020573920824
 20
0.0908927397580617
 10
0.2642173416005486
 20
0.0909179273540797
 10
0.2642315125943273
 20
0.0909437576648971
 10
0.2642445433981268
 20
0.0909701815210487
 10
0.2642564092070712
 20
0.0909971486232233
 10
0.2642670874339189
 20
0.0910246076380086
 10
0.264276557752058
 20
0.0910525062956097
 10
0.2642848021342001
 20
0.0910807914893458
 10
0.2642918048866947
 20
0.0911094093767433
 10
0.2642975526794044
 20
0.0911383054820266
 10
0.26430203457108
 20
0.0911674247998176
 10
0.2643052420301847
 20
0.0911967118998394
 10
0.2643071689511386
 20
0.0912261110324326
 10
0.2643078116659379
 20
0.0912555662346772
 10
0.2643078116659379
 20
0.0924893300471174
 10
0.2640978916659381
 20
0.0924893300471174
 10
0.2640978916659381
 20
0.0912555662346772
 10
0.2640974487484642
 20
0.0912352676142282
 10
0.2640961208391615
 20
0.091215007633357
 10
0.2640939104657802
 20
0.0911948248580885
 10
0.2640908218358924
 20
0.0911747577074826
 10
0.2640868608288798
 20
0.0911548443805011
 10
0.2640820349847452
 20
0.0911351227832936
 10
0.2640763534897569
 20
0.0911156304570416
 10
0.2640698271589632
 20
0.0910964045064957
 10
0.2640624684156064
 20
0.0910774815293454
 10
0.2640542912674717
 20
0.0910588975465535
 10
0.2640453112802265
 20
0.0910406879337873
 10
0.2640355455477862
 20
0.0910228873540798
 10
0.2640250126597773
 20
0.0910055296918461
 10
0.2640137326661518
 20
0.0909886479883826
 10
0.2640017270390175
 20
0.0909722743789717
 10
0.2639890186317687
 20
0.0909564400317096
 10
0.2639756316355809
 20
0.0909411750881758
 10
0.2639615915333619
 20
0.0909265086060585
 10
0.2639469250512442
 20
0.0909124685038393
 10
0.2639316601077107
 20
0.0908990815076515
 10
0.2639158257604483
 20
0.0908863731004027
 10
0.2638994521510374
 20
0.0908743674732686
 10
0.2638825704475743
 20
0.0908630874796427
 10
0.2638652127853405
 20
0.0908525545916339
 10
0.263847412205633
 20
0.0908427888591937
 10
0.2638292025928665
 20
0.0908338088719482
 10
0.2638106186100747
 20
0.0908256317238139
 10
0.2637916956329248
 20
0.0908182729804568
 10
0.2637724696823787
 20
0.0908117466496632
 10
0.2637529773561264
 20
0.0908060651546749
 10
0.2637332557589192
 20
0.0908012393105403
 10
0.2637133424319378
 20
0.0907972783035278
 10
0.263693275281332
 20
0.0907941896736399
 10
0.2636730925060631
 20
0.0907919793002589
 10
0.2636528325251923
 20
0.0907906513909559
 10
0.2636325339047431
 20
0.0907902084734821
 10
0.263612235284294
 20
0.0907906513909559
 10
0.2635919753034226
 20
0.0907919793002589
 10
0.2635717925281542
 20
0.0907941896736399
 10
0.2635517253775485
 20
0.0907972783035278
 10
0.263531812050567
 20
0.0908012393105403
 10
0.2635120904533593
 20
0.0908060651546749
 10
0.263492598127107
 20
0.0908117466496632
 10
0.2634733721765611
 20
0.0908182729804568
 10
0.2634544491994109
 20
0.0908256317238139
 10
0.263435865216619
 20
0.0908338088719482
 10
0.2634176556038526
 20
0.0908427888591937
 10
0.2633998550241451
 20
0.0908525545916339
 10
0.2633824973619114
 20
0.0908630874796427
 10
0.2633656156584482
 20
0.0908743674732686
 10
0.2633492420490377
 20
0.0908863731004027
 10
0.2633334077017755
 20
0.0908990815076515
 10
0.2633181427582415
 20
0.0909124685038393
 10
0.2633034762761242
 20
0.0909265086060585
 10
0.2632894361739049
 20
0.0909411750881758
 10
0.2632760491777171
 20
0.0909564400317096
 10
0.2632633407704685
 20
0.0909722743789717
 10
0.2632513351433345
 20
0.0909886479883826
 10
0.2632400551497083
 20
0.0910055296918461
 10
0.2632295222616997
 20
0.0910228873540798
 10
0.2632197565292593
 20
0.0910406879337873
 10
0.263210776542014
 20
0.0910588975465535
 10
0.2632025993938799
 20
0.0910774815293454
 10
0.2631952406505225
 20
0.0910964045064957
 10
0.2631887143197288
 20
0.0911156304570416
 10
0.2631830328247404
 20
0.0911351227832936
 10
0.2631782069806058
 20
0.0911548443805011
 10
0.2631742459735936
 20
0.0911747577074826
 10
0.2631711573437054
 20
0.0911948248580885
 10
0.2631689469703248
 20
0.091215007633357
 10
0.2631676190610215
 20
0.0912352676142282
 10
0.2631671761435476
 20
0.0912555662346772
 10
0.2631671761435476
 20
0.0924893300471174
 97
        0
 75
     0
 76
     1
 98
        0
  0
HATCH
  5
5C
330
3F
100
AcDbEntity
 67
     1
  8
STANDARD
  6
AUSGEZOGEN
 62
   250
370
    25
100
AcDbHatch
 10
0.0
 20
0.0
 30
0.0
210
0.0
220
0.0
230
1.0
  2
SOLID
 70
     1
 71
     0
 91
        2
 92
        3
 72
     0
 73
     1
 93
      122
 10
0.26552394604042
 20
0.0924893300471174
 10
0.26552394604042
 20
0.0905802884734823
 10
0.2657338660404199
 20
0.0905802884734823
 10
0.2657338660404199
 20
0.0914183604618157
 10
0.2660240747029238
 20
0.0914183604618157
 10
0.2660443496334695
 20
0.0914040421423496
 10
0.2660618900386595
 20
0.0913911853062787
 10
0.2660775836213515
 20
0.0913792075052148
 10
0.2660918619662382
 20
0.0913678309446304
 10
0.2661049778762932
 20
0.0913568971558739
 10
0.2661170971999352
 20
0.0913463055625404
 10
0.2661283376466569
 20
0.091335987429663
 10
0.2661388159387731
 20
0.09132586535955
 10
0.2661491143885025
 20
0.091315385293324
 10
0.2661594686663235
 20
0.0913042990208265
 10
0.2661699103617921
 20
0.0912925502012738
 10
0.2661804863160409
 20
0.0912800601757666
 10
0.2661912546693127
 20
0.0912667297325572
 10
0.2662022932630358
 20
0.0912524264010206
 10
0.2662137116791146
 20
0.0912369648735214
 10
0.2662256746248693
 20
0.0912200689379711
 10
0.2662384536894499
 20
0.0912012872051752
 10
0.2662525666815163
 20
0.091179766217891
 10
0.2662693180791108
 20
0.0911533709014395
 10
0.2662923668736897
 20
0.0911161034236884
 10
0.266319130432232
 20
0.0910719511275627
 10
0.26635137725042
 20
0.0910177928832764
 10
0.2664101360966545
 20
0.0909177878364148
 10
0.2664528112715341
 20
0.0908454376884816
 10
0.2664849529666735
 20
0.0907917676737329
 10
0.2665208066230507
 20
0.0907328404488392
 10
0.2665637715651949
 20
0.0906631707773677
 10
0.2666154277567279
 20
0.0905802884734823
 10
0.2668629080988774
 20
0.0905802884734823
 10
0.2668226075557572
 20
0.0906447941500888
 10
0.2667780307650244
 20
0.090716093379262
 10
0.2667290356990212
 20
0.090794946102375
 10
0.2666911804326571
 20
0.0908565651536135
 10
0.2666586173264037
 20
0.0909102900665167
 10
0.2666272960206586
 20
0.0909627597456188
 10
0.2665802811734811
 20
0.0910425815158108
 10
0.2665259737650546
 20
0.091134895532008
 10
0.2664943281709778
 20
0.091188003025313
 10
0.2664687339894381
 20
0.0912302682606467
 10
0.2664497046699559
 20
0.0912610438724374
 10
0.2664335480799755
 20
0.0912864996019679
 10
0.2664188804218733
 20
0.0913089412643608
 10
0.2664051267887977
 20
0.0913293286228342
 10
0.2663919733435668
 20
0.0913481848810745
 10
0.2663792060702175
 20
0.091365861316479
 10
0.2663667600779138
 20
0.0913824844290637
 10
0.2663546045508605
 20
0.0913981284438696
 10
0.2663427158249839
 20
0.0914128549980615
 10
0.2663310751495371
 20
0.0914267169008507
 10
0.2663539654785079
 20
0.0914313044312109
 10
0.2663766303884395
 20
0.0914369018796061
 10
0.2663990297806679
 20
0.0914434819098928
 10
0.2664211210794704
 20
0.0914510320150558
 10
0.2664428622947356
 20
0.091459537844207
 10
0.2664642121017738
 20
0.0914689832298627
 10
0.2664851299198669
 20
0.0914793502186731
 10
0.2665055759893994
 20
0.0914906191055492
 10
0.2665255114474349
 20
0.0915027684711156
 10
0.2665448984015836
 20
0.0915157752224238
 10
0.2665637000020257
 20
0.0915296146368468
 10
0.2665818805115548
 20
0.0915442604090705
 10
0.2665994053735051
 20
0.0915596847010928
 10
0.2666162412774349
 20
0.0915758581951377
 10
0.2666323562224422
 20
0.0915927501493813
 10
0.2666477195779904
 20
0.0916103284563833
 10
0.2666623021421286
 20
0.0916285597041169
 10
0.2666760761969978
 20
0.0916474092394749
 10
0.2666890155615159
 20
0.0916668412341388
 10
0.2667010956411423
 20
0.091686818752678
 10
0.2667122934746233
 20
0.0917073038227558
 10
0.2667225877776389
 20
0.0917282575073049
 10
0.2667319589832574
 20
0.0917496399785375
 10
0.2667403892791275
 20
0.0917714105936483
 10
0.2667478626413353
 20
0.0917935279720658
 10
0.2667543648648628
 20
0.0918159500741073
 10
0.2667598835905849
 20
0.0918386342808857
 10
0.266764408328766
 20
0.0918615374753168
 10
0.2667679304789941
 20
0.0918846161240757
 10
0.2667704433465302
 20
0.0919078263603412
 10
0.2667719421550324
 20
0.0919311240671774
 10
0.2667724240556351
 20
0.0919544649613886
 10
0.2667718881323648
 20
0.0919778046776893
 10
0.2667703354038789
 20
0.0920010988530344
 10
0.2667677688215323
 20
0.09202430321094
 10
0.2667641932637638
 20
0.0920473736456436
 10
0.2667596155268278
 20
0.092070266305937
 10
0.2667540443118742
 20
0.0920929376785176
 10
0.2667474902084074
 20
0.0921153446706965
 10
0.266739965674163
 20
0.0921374446923067
 10
0.2667314850114254
 20
0.092159195736656
 10
0.266722064339843
 20
0.0921805564603724
 10
0.2667117215657894
 20
0.0922014862619872
 10
0.2667004763483279
 20
0.0922219453591082
 10
0.2666883500618448
 20
0.0922418948640366
 10
0.26667536575542
 20
0.0922612968576822
 10
0.2666615481090182
 20
0.0922801144616393
 10
0.2666469233865791
 20
0.0922983119082824
 10
0.2666315193860934
 20
0.0923158546087528
 10
0.2666153653867679
 20
0.0923327092187023
 10
0.2665984920933722
 20
0.0923488437016733
 10
0.2665809315778767
 20
0.0923642273899919
 10
0.2665627172184911
 20
0.0923788310430599
 10
0.2665438836362215
 20
0.0923926269029337
 10
0.2665244666290639
 20
0.0924055887470852
 10
0.2665045031039615
 20
0.0924176919382448
 10
0.2664840310066529
 20
0.0924289134712304
 10
0.2664630892495476
 20
0.092439232016675
 10
0.2664417176377616
 20
0.0924486279615674
 10
0.2664199567934595
 20
0.0924570834465335
 10
0.2663978480786402
 20
0.0924645823997813
 10
0.2663754335165202
 20
0.0924711105676498
 10
0.2663527557116544
 20
0.0924766555417014
 10
0.2663298577689586
 20
0.0924812067823075
 10
0.2663067832117753
 20
0.0924847556386821
 10
0.266283575899149
 20
0.0924872953653243
 10
0.2662602799424583
 20
0.09248882113484
 10
0.2662369396215725
 20
0.0924893300471174
 97
        0
 92
       18
 72
     0
 73
     1
 93
       75
 10
0.2657338660404199
 20
0.0922794100471174
 10
0.2662369396215725
 20
0.0922794100471174
 10
0.2662511405583757
 20
0.0922791001815741
 10
0.2662653144628881
 20
0.0922781711747907
 10
0.2662794343542783
 20
0.0922766247951846
 10
0.2662934733545284
 20
0.092274463986377
 10
0.2663074047396056
 20
0.0922716928615905
 10
0.2663212019903254
 20
0.0922683166958184
 10
0.2663348388428369
 20
0.0922643419157845
 10
0.2663482893386166
 20
0.0922597760877083
 10
0.2663615278738811
 20
0.092254627902903
 10
0.2663745292483263
 20
0.0922489071612309
 10
0.266387268713097
 20
0.0922426247524493
 10
0.2663997220178979
 20
0.0922357926354799
 10
0.2664118654571552
 20
0.0922284238156463
 10
0.2664236759151427
 20
0.0922205323199151
 10
0.2664351309099813
 20
0.0922121331701974
 10
0.2664462086364383
 20
0.0922032423547519
 10
0.2664568880074319
 20
0.0921938767977513
 10
0.2664671486941713
 20
0.0921840543270658
 10
0.2664769711648569
 20
0.092173793640326
 10
0.2664863367218575
 20
0.0921631142693327
 10
0.2664952275373032
 20
0.0921520365428756
 10
0.2665036266870209
 20
0.0921405815480367
 10
0.2665115181827518
 20
0.0921287710900494
 10
0.2665188870025859
 20
0.0921166276507921
 10
0.2665257191195554
 20
0.0921041743459913
 10
0.2665320015283366
 20
0.0920914348812207
 10
0.266537722270009
 20
0.0920784335067755
 10
0.266542870454814
 20
0.0920651949715109
 10
0.2665474362828903
 20
0.0920517444757311
 10
0.2665514110629243
 20
0.0920381076232196
 10
0.2665547872286961
 20
0.0920243103724999
 10
0.2665575583534828
 20
0.0920103789874231
 10
0.2665597191622903
 20
0.0919963399871723
 10
0.2665612655418963
 20
0.0919822200957828
 10
0.2665621945486797
 20
0.0919680461912698
 10
0.2665625044142232
 20
0.0919538452544667
 10
0.2665621945486797
 20
0.0919396443176636
 10
0.2665612655418963
 20
0.0919254704131507
 10
0.2665597191622903
 20
0.0919113505217611
 10
0.2665575583534828
 20
0.0918973115215103
 10
0.2665547872286961
 20
0.0918833801364336
 10
0.2665514110629243
 20
0.0918695828857138
 10
0.2665474362828903
 20
0.0918559460332022
 10
0.266542870454814
 20
0.0918424955374224
 10
0.266537722270009
 20
0.0918292570021579
 10
0.2665320015283366
 20
0.0918162556277128
 10
0.2665257191195554
 20
0.0918035161629421
 10
0.2665188870025859
 20
0.0917910628581413
 10
0.2665115181827518
 20
0.091778919418884
 10
0.2665036266870209
 20
0.0917671089608967
 10
0.2664952275373032
 20
0.0917556539660578
 10
0.2664863367218575
 20
0.0917445762396007
 10
0.2664769711648569
 20
0.0917338968686074
 10
0.2664671486941713
 20
0.0917236361818677
 10
0.2664568880074319
 20
0.0917138137111821
 10
0.2664462086364383
 20
0.0917044481541815
 10
0.2664351309099813
 20
0.091695557338736
 10
0.2664236759151427
 20
0.0916871581890183
 10
0.2664118654571552
 20
0.0916792666932871
 10
0.2663997220178979
 20
0.0916718978734535
 10
0.266387268713097
 20
0.091665065756484
 10
0.2663745292483263
 20
0.0916587833477025
 10
0.2663615278738811
 20
0.0916530626060303
 10
0.2663482893386166
 20
0.0916479144212251
 10
0.2663348388428369
 20
0.0916433485931489
 10
0.2663212019903254
 20
0.091639373813115
 10
0.2663074047396056
 20
0.091635997647343
 10
0.2662934733545284
 20
0.0916332265225564
 10
0.2662794343542783
 20
0.0916310657137488
 10
0.2662653144628881
 20
0.0916295193341427
 10
0.2662511405583757
 20
0.0916285903273593
 10
0.2662369396215725
 20
0.091628280461816
 10
0.2657338660404199
 20
0.0916282804618157
 97
        0
 75
     0
 76
     1
 98
        0
  0
HATCH
  5
5D
330
3F
100
AcDbEntity
 67
     1
  8
STANDARD
  6
AUSGEZOGEN
 62
   250
370
    25
100
AcDbHatch
 10
0.0
 20
0.0
 30
0.0
210
0.0
220
0.0
230
1.0
  2
SOLID
 70
     1
 71
     0
 91
        3
 92
        3
 72
     0
 73
     1
 93
      119
 10
0.2679468244773509
 20
0.0924893300471174
 10
0.2679468244773509
 20
0.0905802884734823
 10
0.2687800884477026
 20
0.0905802884734823
 10
0.2688027413655509
 20
0.0905807783576409
 10
0.2688253519269465
 20
0.090582247094131
 10
0.268847877854636
 20
0.0905846919367073
 10
0.268870277029614
 20
0.0905881083140003
 10
0.2688925075698771
 20
0.0905924898380638
 10
0.2689145279087354
 20
0.0905978283163188
 10
0.2689362968725333
 20
0.0906041137668729
 10
0.2689577737576371
 20
0.0906113344371832
 10
0.268978918406543
 20
0.0906194768260318
 10
0.2689996912829614
 20
0.0906285257087707
 10
0.2690200535457432
 20
0.0906384641657888
 10
0.269039967121507
 20
0.090649273614147
 10
0.269059394775825
 20
0.0906609338423266
 10
0.2690783001828473
 20
0.0906734230480197
 10
0.269096647993221
 20
0.0906867178788943
 10
0.2691144039001898
 20
0.090700793476261
 10
0.2691315347037378
 20
0.090715623521551
 10
0.2691480083726689
 20
0.0907311802855285
 10
0.2691637941044979
 20
0.0907474346801383
 10
0.2691788623830449
 20
0.0907643563128946
 10
0.2691931850336254
 20
0.0907819135437085
 10
0.2692067352757304
 20
0.09080007354405
 10
0.2692194877731017
 20
0.0908188023583289
 10
0.2692314186811051
 20
0.0908380649673869
 10
0.2692425056913149
 20
0.090857825353975
 10
0.2692527280732268
 20
0.0908780465700996
 10
0.2692620667130184
 20
0.0908986908061074
 10
0.2692705041492912
 20
0.0909197194613819
 10
0.2692780246057166
 20
0.0909410932165189
 10
0.2692846140205366
 20
0.0909627721068466
 10
0.2692902600728551
 20
0.0909847155971506
 10
0.2692949522056781
 20
0.0910068826574672
 10
0.2692986816456487
 20
0.0910292318398015
 10
0.2693014414194574
 20
0.0910517213556262
 10
0.2693032263668747
 20
0.0910743091540187
 10
0.2693040331504044
 20
0.0910969530002874
 10
0.2693038602615218
 20
0.0911196105549423
 10
0.269302708023494
 20
0.0911422394528616
 10
0.2693005785907778
 20
0.0911647973825052
 10
0.2692974759449892
 20
0.0911872421650307
 10
0.2692934058874574
 20
0.0912095318331573
 10
0.2692883760283821
 20
0.0912316247096381
 10
0.2692823957725995
 20
0.0912534794851865
 10
0.2692754763019982
 20
0.0912750552957183
 10
0.2692676305546126
 20
0.0912963117987578
 10
0.2692588732004303
 20
0.0913172092488712
 10
0.2692492206139623
 20
0.0913377085719815
 10
0.2692386908436263
 20
0.0913577714384309
 10
0.2692273035779981
 20
0.0913773603346486
 10
0.2692150801090014
 20
0.0913964386332938
 10
0.2692020432920917
 20
0.0914149706617411
 10
0.269188217503525
 20
0.0914329217687825
 10
0.2691736285947769
 20
0.0914502583894173
 10
0.2691583038442047
 20
0.0914669481076123
 10
0.2691422719060465
 20
0.0914829597169126
 10
0.269125562756838
 20
0.0914982632787929
 10
0.2691082076393652
 20
0.0915128301786355
 10
0.269090239004248
 20
0.091526633179234
 10
0.2690716904492602
 20
0.0915396464717219
 10
0.2690525966565122
 20
0.0915518457238299
 10
0.2690696327589114
 20
0.0915675030617775
 10
0.2690859765614435
 20
0.0915838817410691
 10
0.2691015975485174
 20
0.0916009511809952
 10
0.2691164665541137
 20
0.0916186795111234
 10
0.2691305558162416
 20
0.0916370336308039
 10
0.2691438390287719
 20
0.0916559792709729
 10
0.2691562913905573
 20
0.0916754810581355
 10
0.2691678896517318
 20
0.091695502580412
 10
0.2691786121571282
 20
0.0917160064555233
 10
0.2691884388867053
 20
0.0917369544005867
 10
0.2691973514929296
 20
0.091758307303594
 10
0.2692053333350316
 20
0.0917800252964392
 10
0.269212369510076
 20
0.091802067829354
 10
0.2692184468807866
 20
0.0918243937466205
 10
0.2692235541000766
 20
0.0918469613634127
 10
0.2692276816322316
 20
0.091869728543626
 10
0.2692308217707166
 20
0.09189265277855
 10
0.2692329686525652
 20
0.0919156912662365
 10
0.2692341182693238
 20
0.0919388009914159
 10
0.2692342684745363
 20
0.0919619388058103
 10
0.2692334189877549
 20
0.0919850615086963
 10
0.2692315713950605
 20
0.092008125927566
 10
0.269228729146102
 20
0.0920310889987327
 10
0.2692248975476556
 20
0.0920539078477376
 10
0.2692200837537172
 20
0.0920765398693985
 10
0.2692142967521447
 20
0.0920989428073612
 10
0.2692075473478753
 20
0.092121074832993
 10
0.2691998481427548
 20
0.0921428946234838
 10
0.269191213512005
 20
0.0921643614389993
 10
0.2691816595773865
 20
0.0921854351987458
 10
0.2691712041770959
 20
0.0922060765558066
 10
0.2691598668324608
 20
0.0922262469706062
 10
0.269147668711491
 20
0.0922459087828664
 10
0.2691346325893561
 20
0.0922650252819246
 10
0.269120782805862
 20
0.0922835607752744
 10
0.2691061452200056
 20
0.0923014806552081
 10
0.269090747161692
 20
0.0923187514634328
 10
0.2690746173807098
 20
0.0923353409535403
 10
0.2690577859930497
 20
0.0923512181512146
 10
0.2690402844246761
 20
0.0923663534120649
 10
0.269022145352849
 20
0.0923807184769731
 10
0.2690034026451169
 20
0.0923942865248587
 10
0.2689840912960784
 20
0.0924070322227551
 10
0.2689642473620446
 20
0.0924189317731087
 10
0.2689439078937196
 20
0.0924299629582127
 10
0.2689231108670205
 20
0.0924401051816889
 10
0.2689018951121759
 20
0.0924493395069438
 10
0.2688803002412212
 20
0.092457648692525
 10
0.2688583665740438
 20
0.0924650172243121
 10
0.268836135063097
 20
0.0924714313444845
 10
0.2688136472169414
 20
0.0924768790772081
 10
0.2687909450227411
 20
0.0924813502509954
 10
0.2687680708678703
 20
0.0924848365176964
 10
0.2687450674607729
 20
0.0924873313680858
 10
0.2687219777512195
 20
0.0924888301440166
 10
0.2686988448501164
 20
0.0924893300471174
 97
        0
 92
       18
 72
     0
 73
     1
 93
       75
 10
0.2681567444773513
 20
0.0922794100471174
 10
0.2686988448501164
 20
0.0922794100471174
 10
0.2687130457869196
 20
0.0922791001815743
 10
0.2687272196914325
 20
0.0922781711747907
 10
0.2687413395828222
 20
0.0922766247951846
 10
0.2687553785830729
 20
0.092274463986377
 10
0.2687693099681494
 20
0.0922716928615905
 10
0.2687831072188694
 20
0.0922683166958187
 10
0.2687967440713807
 20
0.0922643419157847
 10
0.2688101945671606
 20
0.0922597760877083
 10
0.2688234331024254
 20
0.092254627902903
 10
0.2688364344768707
 20
0.0922489071612312
 10
0.268849173941641
 20
0.0922426247524493
 10
0.2688616272464418
 20
0.0922357926354802
 10
0.2688737706856991
 20
0.0922284238156463
 10
0.2688855811436867
 20
0.0922205323199151
 10
0.2688970361385257
 20
0.0922121331701974
 10
0.2689081138649829
 20
0.0922032423547521
 10
0.2689187932359758
 20
0.0921938767977516
 10
0.2689290539227153
 20
0.0921840543270658
 10
0.2689388763934014
 20
0.092173793640326
 10
0.268948241950402
 20
0.0921631142693329
 10
0.2689571327658472
 20
0.0921520365428758
 10
0.2689655319155648
 20
0.0921405815480367
 10
0.268973423411296
 20
0.0921287710900494
 10
0.2689807922311299
 20
0.0921166276507921
 10
0.2689876243480992
 20
0.0921041743459913
 10
0.268993906756881
 20
0.0920914348812207
 10
0.2689996274985528
 20
0.0920784335067755
 10
0.2690047756833583
 20
0.0920651949715109
 10
0.2690093415114343
 20
0.0920517444757311
 10
0.2690133162914683
 20
0.0920381076232196
 10
0.2690166924572401
 20
0.0920243103724999
 10
0.2690194635820268
 20
0.0920103789874231
 10
0.2690216243908342
 20
0.0919963399871723
 10
0.2690231707704409
 20
0.0919822200957828
 10
0.269024099777224
 20
0.0919680461912698
 10
0.2690244096427672
 20
0.0919538452544667
 10
0.269024099777224
 20
0.0919396443176636
 10
0.2690231707704409
 20
0.0919254704131507
 10
0.2690216243908342
 20
0.0919113505217611
 10
0.2690194635820268
 20
0.0918973115215103
 10
0.2690166924572401
 20
0.0918833801364336
 10
0.2690133162914683
 20
0.0918695828857138
 10
0.2690093415114343
 20
0.0918559460332022
 10
0.2690047756833583
 20
0.0918424955374224
 10
0.2689996274985528
 20
0.0918292570021579
 10
0.268993906756881
 20
0.0918162556277128
 10
0.2689876243480992
 20
0.0918035161629421
 10
0.2689807922311299
 20
0.0917910628581413
 10
0.268973423411296
 20
0.091778919418884
 10
0.2689655319155648
 20
0.0917671089608967
 10
0.2689571327658472
 20
0.0917556539660575
 10
0.268948241950402
 20
0.0917445762396005
 10
0.2689388763934014
 20
0.0917338968686074
 10
0.2689290539227153
 20
0.0917236361818677
 10
0.2689187932359758
 20
0.0917138137111818
 10
0.2689081138649829
 20
0.0917044481541813
 10
0.2688970361385257
 20
0.091695557338736
 10
0.2688855811436867
 20
0.0916871581890183
 10
0.2688737706856991
 20
0.0916792666932871
 10
0.2688616272464418
 20
0.0916718978734532
 10
0.268849173941641
 20
0.091665065756484
 10
0.2688364344768707
 20
0.0916587833477022
 10
0.2688234331024254
 20
0.0916530626060303
 10
0.2688101945671606
 20
0.0916479144212251
 10
0.2687967440713807
 20
0.0916433485931487
 10
0.2687831072188694
 20
0.0916393738131147
 10
0.2687693099681494
 20
0.091635997647343
 10
0.2687553785830729
 20
0.0916332265225564
 10
0.2687413395828222
 20
0.0916310657137488
 10
0.2687272196914325
 20
0.0916295193341427
 10
0.2687130457869196
 20
0.0916285903273591
 10
0.2686988448501164
 20
0.091628280461816
 10
0.2681567444773513
 20
0.091628280461816
 97
        0
 92
       18
 72
     0
 73
     1
 93
       75
 10
0.2687800884477032
 20
0.0914183604618157
 10
0.2687937882501547
 20
0.0914180615310627
 10
0.2688074619742538
 20
0.0914171653078358
 10
0.2688210835912893
 20
0.0914156734981464
 10
0.2688346271717388
 20
0.0914135889417392
 10
0.2688480669346278
 20
0.0914109156066862
 10
0.2688613772966028
 20
0.0914076585818319
 10
0.268874532920634
 20
0.0914038240671088
 10
0.2688875087642431
 20
0.0913994193617335
 10
0.2689002801271742
 20
0.0913944528503127
 10
0.2689128226984124
 20
0.0913889339868834
 10
0.2689251126024595
 20
0.0913828732769159
 10
0.2689371264447861
 20
0.0913762822573162
 10
0.26894884135636
 20
0.0913691734744642
 10
0.2689602350371806
 20
0.0913615604603326
 10
0.268971285798729
 20
0.0913534577067264
 10
0.2689819726052532
 20
0.0913448806376973
 10
0.2689922751138089
 20
0.0913358455801842
 10
0.2690021737129858
 20
0.0913263697329321
 10
0.2690116495602382
 20
0.091316471133755
 10
0.269020684617751
 20
0.0913061686251991
 10
0.2690292616867804
 20
0.0912954818186751
 10
0.2690373644403866
 20
0.0912844310571265
 10
0.2690449774545181
 20
0.0912730373763057
 10
0.26905208623737
 20
0.0912613224647323
 10
0.2690586772569699
 20
0.0912493086224058
 10
0.2690647379669374
 20
0.0912370187183582
 10
0.2690702568303665
 20
0.09122447614712
 10
0.2690752233417872
 20
0.091211704784189
 10
0.2690796280471628
 20
0.09119872894058
 10
0.269083462561886
 20
0.0911855733165488
 10
0.2690867195867402
 20
0.0911722629545735
 10
0.2690893929217931
 20
0.0911588231916848
 10
0.2690914774782002
 20
0.0911452796112352
 10
0.2690929692878896
 20
0.0911316579941998
 10
0.2690938655111167
 20
0.0911179842701005
 10
0.2690941644418696
 20
0.0911042844676489
 10
0.2690938655111167
 20
0.0910905846651972
 10
0.2690929692878896
 20
0.0910769109410981
 10
0.2690914774782002
 20
0.0910632893240626
 10
0.2690893929217931
 20
0.091049745743613
 10
0.2690867195867402
 20
0.0910363059807243
 10
0.269083462561886
 20
0.0910229956187491
 10
0.2690796280471628
 20
0.0910098399947178
 10
0.2690752233417872
 20
0.0909968641511088
 10
0.2690702568303665
 20
0.0909840927881778
 10
0.2690647379669374
 20
0.0909715502169396
 10
0.2690586772569699
 20
0.0909592603128921
 10
0.26905208623737
 20
0.0909472464705655
 10
0.2690449774545181
 20
0.0909355315589921
 10
0.2690373644403866
 20
0.0909241378781713
 10
0.2690292616867804
 20
0.0909130871166227
 10
0.269020684617751
 20
0.0909024003100987
 10
0.2690116495602382
 20
0.0908920978015427
 10
0.2690021737129858
 20
0.0908821992023657
 10
0.2689922751138089
 20
0.0908727233551136
 10
0.2689819726052532
 20
0.0908636882976005
 10
0.268971285798729
 20
0.0908551112285714
 10
0.2689602350371806
 20
0.0908470084749652
 10
0.26894884135636
 20
0.0908393954608335
 10
0.2689371264447861
 20
0.0908322866779816
 10
0.2689251126024595
 20
0.0908256956583819
 10
0.2689128226984124
 20
0.0908196349484144
 10
0.2689002801271742
 20
0.0908141160849851
 10
0.2688875087642431
 20
0.0908091495735644
 10
0.268874532920634
 20
0.0908047448681891
 10
0.2688613772966028
 20
0.0908009103534659
 10
0.2688480669346278
 20
0.0907976533286117
 10
0.2688346271717388
 20
0.0907949799935586
 10
0.2688210835912893
 20
0.0907928954371513
 10
0.2688074619742538
 20
0.090791403627462
 10
0.2687937882501547
 20
0.0907905074042351
 10
0.2687800884477026
 20
0.0907902084734821
 10
0.2681567444773513
 20
0.0907902084734823
 10
0.2681567444773513
 20
0.0914183604618157
 97
        0
 75
     0
 76
     1
 98
        0
  0
HATCH
  5
5E
330
3F
100
AcDbEntity
 67
     1
  8
STANDARD
  6
AUSGEZOGEN
 62
   250
370
    25
100
AcDbHatch
 10
0.0
 20
0.0
 30
0.0
210
0.0
220
0.0
230
1.0
  2
SOLID
 70
     1
 71
     0
 91
        2
 92
        3
 72
     0
 73
     1
 93
        8
 10
0.2702244621344962
 20
0.0905802884734823
 10
0.2704491874708823
 20
0.0905802884734823
 10
0.2706602253164023
 20
0.0911325407445333
 10
0.27146019671942
 20
0.0911325407445333
 10
0.27167123456494
 20
0.0905802884734823
 10
0.2718959599013264
 20
0.0905802884734823
 10
0.2711664381920876
 20
0.0924893300471174
 10
0.2709539838437346
 20
0.0924893300471174
 97
        0
 92
       18
 72
     0
 73
     1
 93
        3
 10
0.2710602110179112
 20
0.0921792393189147
 10
0.2713799778287903
 20
0.0913424607445334
 10
0.270740444207032
 20
0.0913424607445334
 97
        0
 75
     0
 76
     1
 98
        0
  0
HATCH
  5
5F
330
3F
100
AcDbEntity
 67
     1
  8
STANDARD
  6
AUSGEZOGEN
 62
   250
370
    25
100
AcDbHatch
 10
0.0
 20
0.0
 30
0.0
210
0.0
220
0.0
230
1.0
  2
SOLID
 70
     1
 71
     0
 91
        1
 92
        3
 72
     0
 73
     1
 93
       10
 10
0.2729273960728446
 20
0.0905802884734823
 10
0.2731373160728442
 20
0.0905802884734823
 10
0.2731373160728442
 20
0.0921118891322595
 10
0.2740215861254804
 20
0.0905802884734823
 10
0.2742315061254804
 20
0.0905802884734823
 10
0.2742315061254804
 20
0.0924893300471174
 10
0.2740215861254804
 20
0.0924893300471174
 10
0.2740215861254804
 20
0.0909577293883403
 10
0.2731373160728442
 20
0.0924893300471174
 10
0.2729273960728446
 20
0.0924893300471174
 97
        0
 75
     0
 76
     1
 98
        0
  0
HATCH
  5
60
330
3F
100
AcDbEntity
 67
     1
  8
STANDARD
  6
AUSGEZOGEN
 62
   250
370
    25
100
AcDbHatch
 10
0.0
 20
0.0
 30
0.0
210
0.0
220
0.0
230
1.0
  2
SOLID
 70
     1
 71
     0
 91
        2
 92
        3
 72
     0
 73
     1
 93
       76
 10
0.2772208708036478
 20
0.0924893300471174
 10
0.2772208708036478
 20
0.0905802884734823
 10
0.2779456910376757
 20
0.0905802884734823
 10
0.2779721182639062
 20
0.0905808651176101
 10
0.2779984951844087
 20
0.0905825939523182
 10
0.2780247715892171
 20
0.0905854716866718
 10
0.2780508974597009
 20
0.0905894928427397
 10
0.2780768230637808
 20
0.0905946497660229
 10
0.278102499050596
 20
0.0906009326400251
 10
0.278127876544446
 20
0.0906083295049381
 10
0.2781529072378295
 20
0.0906168262804094
 10
0.2781775434833986
 20
0.0906264067923437
 10
0.2782017383846594
 20
0.0906370528036924
 10
0.2782254458852424
 20
0.0906487440491678
 10
0.2782486208565733
 20
0.0906614582738191
 10
0.2782712191837758
 20
0.0906751712753976
 10
0.2782931978496511
 20
0.0906898569504254
 10
0.2783145150165583
 20
0.0907054873438849
 10
0.2783351301060595
 20
0.0907220327024343
 10
0.2783550038761592
 20
0.0907394615310429
 10
0.2783740984960077
 20
0.0907577406529452
 10
0.2783923776179097
 20
0.0907768352727932
 10
0.2784098064465185
 20
0.0907967090428932
 10
0.2784263518050675
 20
0.0908173241323943
 10
0.2784419821985275
 20
0.0908386412993016
 10
0.2784566678735548
 20
0.0908606199651765
 10
0.2784703808751335
 20
0.0908832182923796
 10
0.2784830950997851
 20
0.09090639326371
 10
0.2784947863452601
 20
0.0909301007642931
 10
0.2785054323566086
 20
0.0909542956655541
 10
0.2785150128685431
 20
0.0909789319111231
 10
0.2785235096440143
 20
0.0910039626045063
 10
0.2785309065089278
 20
0.0910293400983565
 10
0.2785371893829295
 20
0.0910550160851718
 10
0.2785423463062127
 20
0.0910809416892518
 10
0.278546367462281
 20
0.0911070675597354
 10
0.2785492451966342
 20
0.0911333439645439
 10
0.2785509740313424
 20
0.0911597208850467
 10
0.2785515506754704
 20
0.0911861481112766
 10
0.2785515506754704
 20
0.091891551095758
 10
0.2785509817223653
 20
0.0919176258473963
 10
0.278549275946086
 20
0.0919436509642626
 10
0.2785464365936736
 20
0.0919695769060682
 10
0.2785424690699971
 20
0.0919953543213091
 10
0.2785373809274636
 20
0.0920209341412106
 10
0.2785311818516409
 20
0.0920462676731311
 10
0.2785238836428229
 20
0.0920713066932534
 10
0.2785155001935642
 20
0.092096003538379
 10
0.2785060474622378
 20
0.0921203111966598
 10
0.2784955434426544
 20
0.0921441833970866
 10
0.2784840081298126
 20
0.0921675746975694
 10
0.2784714634818356
 20
0.0921904405714376
 10
0.2784579333781743
 20
0.0922127374922013
 10
0.2784434435741499
 20
0.0922344230164043
 10
0.2784280216519274
 20
0.0922554558644189
 10
0.2784116969680132
 20
0.0922757959990232
 10
0.2783945005973701
 20
0.0922954047016152
 10
0.2783764652742675
 20
0.0923142446459148
 10
0.2783576253299677
 20
0.0923322799690174
 10
0.2783380166273761
 20
0.0923494763396602
 10
0.2783176764927715
 20
0.0923658010235748
 10
0.2782966436447572
 20
0.0923812229457971
 10
0.2782749581205544
 20
0.0923957127498214
 10
0.2782526611997908
 20
0.0924092428534827
 10
0.278229795325922
 20
0.0924217875014597
 10
0.2782064040254396
 20
0.0924333228143017
 10
0.2781825318250127
 20
0.0924438268338849
 10
0.2781582241667316
 20
0.0924532795652116
 10
0.2781335273216064
 20
0.0924616630144699
 10
0.2781084883014843
 20
0.0924689612232879
 10
0.2780831547695634
 20
0.0924751602991106
 10
0.2780575749496623
 20
0.0924802484416442
 10
0.2780317975344211
 20
0.0924842159653206
 10
0.2780058715926155
 20
0.0924870553177332
 10
0.2779798464757489
 20
0.0924887610940127
 10
0.2779537717241107
 20
0.0924893300471174
 97
        0
 92
       18
 72
     0
 73
     1
 93
       76
 10
0.2774307908036477
 20
0.0922794100471174
 10
0.2779537717241107
 20
0.0922794100471174
 10
0.2779706898939532
 20
0.0922790408913381
 10
0.2779875758590981
 20
0.0922779341267096
 10
0.2780043974761504
 20
0.0922760918600212
 10
0.2780211227242064
 20
0.092273517598132
 10
0.2780377197658054
 20
0.0922702162412959
 10
0.2780541570075363
 20
0.0922661940738333
 10
0.2780704031601742
 20
0.0922614587521688
 10
0.2780864272982448
 20
0.0922560192902561
 10
0.2781021989188907
 20
0.0922498860424202
 10
0.2781176879999348
 20
0.0922430706836468
 10
0.2781328650570319
 20
0.092235586187359
 10
0.2781477011997904
 20
0.0922274468007204
 10
0.27816216818677
 20
0.0922186680175165
 10
0.2781762384792386
 20
0.0922092665486599
 10
0.2781898852935943
 20
0.0921992602903808
 10
0.2782030826523508
 20
0.0921886682901607
 10
0.2782158054335853
 20
0.0921775107104741
 10
0.278228029418761
 20
0.0921658087904081
 10
0.278239731338827
 20
0.0921535848052325
 10
0.2782508889185135
 20
0.0921408620239979
 10
0.2782614809187335
 20
0.0921276646652415
 10
0.2782714871770128
 20
0.0921140178508854
 10
0.2782808886458694
 20
0.0920999475584172
 10
0.2782896674290732
 20
0.0920854805714377
 10
0.278297806815712
 20
0.0920706444286791
 10
0.2783052913119997
 20
0.0920554673715822
 10
0.278312106670773
 20
0.0920399782905377
 10
0.2783182399186087
 20
0.0920242066698921
 10
0.2783236793805218
 20
0.0920081825318214
 10
0.2783284147021863
 20
0.0919919363791833
 10
0.2783324368696489
 20
0.0919754991374527
 10
0.2783357382264849
 20
0.0919589020958534
 10
0.2783383124883738
 20
0.0919421768477974
 10
0.2783401547550622
 20
0.0919253552307449
 10
0.278341261519691
 20
0.0919084692656005
 10
0.27834163067547
 20
0.091891551095758
 10
0.27834163067547
 20
0.0911861481112766
 10
0.2783412538286682
 20
0.0911688774668423
 10
0.278340124005611
 20
0.0911516396980613
 10
0.2783382433569814
 20
0.0911344676180064
 10
0.2783356154627005
 20
0.0911173939147075
 10
0.2783322453251149
 20
0.0911004510889297
 10
0.2783281393594731
 20
0.0910836713923044
 10
0.2783233053817137
 20
0.0910670867659383
 10
0.278317752593588
 20
0.09105072877961
 10
0.278311491565144
 20
0.0910346285716761
 10
0.2783045342146054
 20
0.0910188167897979
 10
0.2782968937856838
 20
0.0910033235326003
 10
0.2782885848223712
 20
0.0909881782923795
 10
0.2782796231412498
 20
0.0909734098989608
 10
0.2782700258013904
 20
0.0909590464648205
 10
0.2782598110718736
 20
0.0909451153315717
 10
0.2782489983970188
 20
0.0909316430179188
 10
0.2782376083593663
 20
0.0909186551691759
 10
0.2782256626405008
 20
0.0909061765084518
 10
0.2782131839797765
 20
0.0908942307895862
 10
0.2782001961310336
 20
0.0908828407519338
 10
0.2781867238173806
 20
0.0908720280770788
 10
0.2781727926841319
 20
0.0908618133475623
 10
0.2781584292499916
 20
0.0908522160077028
 10
0.278143660856573
 20
0.0908432543265816
 10
0.2781285156163524
 20
0.0908349453632684
 10
0.2781130223591548
 20
0.0908273049343473
 10
0.2780972105772765
 20
0.0908203475838086
 10
0.2780811103693426
 20
0.0908140865553647
 10
0.2780647523830146
 20
0.0908085337672392
 10
0.278048167756648
 20
0.0908036997894796
 10
0.2780313880600228
 20
0.0907995938238376
 10
0.278014445234245
 20
0.0907962236862519
 10
0.2779973715309463
 20
0.0907935957919713
 10
0.2779801994508913
 20
0.0907917151433415
 10
0.2779629616821103
 20
0.0907905853202845
 10
0.2779456910376757
 20
0.0907902084734823
 10
0.2774307908036477
 20
0.0907902084734823
 97
        0
 75
     0
 76
     1
 98
        0
  0
HATCH
  5
61
330
3F
100
AcDbEntity
 67
     1
  8
STANDARD
  6
AUSGEZOGEN
 62
   250
370
    25
100
AcDbHatch
 10
0.0
 20
0.0
 30
0.0
210
0.0
220
0.0
230
1.0
  2
SOLID
 70
     1
 71
     0
 91
        1
 92
        3
 72
     0
 73
     1
 93
       12
 10
0.2797324300906919
 20
0.0924893300471174
 10
0.2797324300906919
 20
0.0905802884734823
 10
0.2809382143853909
 20
0.0905802884734823
 10
0.2809382143853909
 20
0.0907902084734823
 10
0.2799423500906921
 20
0.0907902084734823
 10
0.2799423500906921
 20
0.0914577170802643
 10
0.2808031872445444
 20
0.0914577170802643
 10
0.2808031872445444
 20
0.0916676370802643
 10
0.2799423500906921
 20
0.0916676370802643
 10
0.2799423500906921
 20
0.0922794100471174
 10
0.2809382143853909
 20
0.0922794100471174
 10
0.2809382143853909
 20
0.0924893300471174
 97
        0
 75
     0
 76
     1
 98
        0
  0
HATCH
  5
62
330
3F
100
AcDbEntity
 67
     1
  8
STANDARD
  6
AUSGEZOGEN
 62
   250
370
    25
100
AcDbHatch
 10
0.0
 20
0.0
 30
0.0
210
0.0
220
0.0
230
1.0
  2
SOLID
 70
     1
 71
     0
 91
        1
 92
        3
 72
     0
 73
     1
 93
      400
 10
0.283096322328568
 20
0.0920096252577591
 10
0.2832834170349701
 20
0.0921048196758533
 10
0.2832693599215975
 20
0.0921310588222925
 10
0.2832542054715207
 20
0.0921566798660867
 10
0.2832379808127146
 20
0.0921816369430161
 10
0.283220714988934
 20
0.0922058853774277
 10
0.283202438907723
 20
0.0922293817622093
 10
0.283183185285087
 20
0.0922520840364923
 10
0.2831629885869273
 20
0.092273951560945
 10
0.2831418849673457
 20
0.092294945190521
 10
0.2831199122039218
 20
0.0923150273445331
 10
0.2830971096300909
 20
0.0923341620739253
 10
0.2830735180647305
 20
0.0923523151256269
 10
0.2830491797390918
 20
0.0923694540038676
 10
0.2830241382212016
 20
0.0923855480283488
 10
0.2829984383378708
 20
0.0924005683891635
 10
0.2829721260944494
 20
0.0924144881983706
 10
0.2829452485924733
 20
0.0924272825381253
 10
0.2829178539453472
 20
0.0924389285052853
 10
0.2828899911922184
 20
0.0924494052524097
 10
0.2828617102101889
 20
0.0924586940250779
 10
0.2828330616250329
 20
0.0924667781954618
 10
0.282804096720571
 20
0.0924736432920914
 10
0.2827748673468657
 20
0.0924792770257603
 10
0.2827454258274077
 20
0.0924836693115238
 10
0.282715824865448
 20
0.0924868122867534
 10
0.2826861174496562
 20
0.0924887003252102
 10
0.2826563567592654
 20
0.0924893300471174
 10
0.2824761905185599
 20
0.0924893300471174
 10
0.282456079991709
 20
0.0924888964150383
 10
0.282436006848144
 20
0.0924875963248758
 10
0.2824160084016601
 20
0.0924854321933563
 10
0.2823961218271976
 20
0.0924824080433654
 10
0.2823763840917405
 20
0.0924785294964696
 10
0.2823568318855953
 20
0.0924738037624666
 10
0.2823375015541911
 20
0.0924682396259828
 10
0.2823184290305153
 20
0.0924618474301441
 10
0.2822996497683187
 20
0.0924546390573484
 10
0.2822811986762114
 20
0.0924466279071779
 10
0.2822631100527702
 20
0.0924378288714915
 10
0.2822454175227824
 20
0.0924282583067412
 10
0.2822281539747406
 20
0.092417934003568
 10
0.2822113514997066
 20
0.0924068751537303
 10
0.2821950413316568
 20
0.0923951023144296
 10
0.2821792537894237
 20
0.092382637370096
 10
0.2821640182203339
 20
0.0923695034917077
 10
0.2821493629456563
 20
0.0923557250937193
 10
0.2821353152079555
 20
0.0923413277886762
 10
0.2821219011204514
 20
0.0923263383396057
 10
0.2821091456184755
 20
0.0923107846102666
 10
0.2820970724131219
 20
0.0922946955133529
 10
0.2820857039471687
 20
0.0922781009567491
 10
0.2820750613533597
 20
0.0922610317879347
 10
0.2820651644151213
 20
0.092243519736641
 10
0.2820560315297871
 20
0.0922255973558705
 10
0.2820476796743996
 20
0.0922072979613835
 10
0.2820401243741519
 20
0.0921886555697673
 10
0.2820333796735262
 20
0.0921697048352042
 10
0.2820274581101888
 20
0.0921504809850528
 10
0.2820223706916829
 20
0.092131019754363
 10
0.2820181268749682
 20
0.0921113573194502
 10
0.2820147345488383
 20
0.0920915302306465
 10
0.2820122000192598
 20
0.092071575344357
 10
0.2820105279976475
 20
0.0920515297545496
 10
0.2820097215921084
 20
0.092031430723799
 10
0.2820097823016625
 20
0.0920113156140214
 10
0.2820107100134577
 20
0.0919912218170227
 10
0.2820125030029783
 20
0.0919711866849895
 10
0.2820151579372516
 20
0.0919512474610575
 10
0.2820186698810428
 20
0.0919314412100791
 10
0.2820230323060302
 20
0.0919118047497249
 10
0.2820282371029383
 20
0.091892374582043
 10
0.2820342745966155
 20
0.0918731868256057
 10
0.2820411335640163
 20
0.0918542771483686
 10
0.2820488012550648
 20
0.0918356807013696
 10
0.2820572634163561
 20
0.0918174320533844
 10
0.2820665043176511
 20
0.0917995651266686
 10
0.2820765067811166
 20
0.091782113133899
 10
0.2820872522132593
 20
0.0917651085164362
 10
0.2820987206394881
 20
0.0917485828840172
 10
0.2821108907412432
 20
0.0917325669559991
 10
0.2821237398956267
 20
0.0917170905042533
 10
0.282137244217455
 20
0.0917021822978234
 10
0.2821513786036606
 20
0.0916878700494468
 10
0.2821661167799542
 20
0.0916741803640391
 10
0.2821814313496652
 20
0.0916611386892396
 10
0.2821972938446712
 20
0.091648769268106
 10
0.282213674778317
 20
0.0916370950940492
 10
0.282230543700224
 20
0.0916261378680913
 10
0.282247869252899
 20
0.0916159179585262
 10
0.2822656192300194
 20
0.0916064543630555
 10
0.2822837606363055
 20
0.0915977646734767
 10
0.2823022597488516
 20
0.0915898650429787
 10
0.2823210821798168
 20
0.0915827701561175
 10
0.2823401929403444
 20
0.0915764932015172
 10
0.2823595565056061
 20
0.0915710458473551
 10
0.2823791368808359
 20
0.0915664382196711
 10
0.28248281164947
 20
0.0915423760188166
 10
0.282585525328183
 20
0.0915144950689287
 10
0.2826871373086318
 20
0.0914828335372133
 10
0.2827875084906287
 20
0.0914474347662467
 10
0.2828865014725567
 20
0.091408347214643
 10
0.2829834967475239
 20
0.0913658365127726
 10
0.2829893508174542
 20
0.0913624757169469
 10
0.2829985401765896
 20
0.0913566631582655
 10
0.2830074721550143
 20
0.0913504623582224
 10
0.2830161303607465
 20
0.0913438846965366
 10
0.2830244989042324
 20
0.0913369422445437
 10
0.2830325624275074
 20
0.0913296477430429
 10
0.2830403061323798
 20
0.0913220145789155
 10
0.2830477158075901
 20
0.0913140567605571
 10
0.2830547778548902
 20
0.091305788892169
 10
0.2830614793139988
 20
0.0912972261469568
 10
0.2830678078863872
 20
0.0912883842392851
 10
0.2830737519578488
 20
0.0912792793958373
 10
0.2830793006198137
 20
0.0912699283258371
 10
0.2830844436893687
 20
0.0912603481903837
 10
0.2830891717279435
 20
0.0912505565709577
 10
0.2830934760586339
 20
0.0912405714371549
 10
0.2830973487821254
 20
0.0912304111137101
 10
0.2831007827911899
 20
0.0912200942468651
 10
0.2831037717837271
 20
0.0912096397701511
 10
0.2831063102743338
 20
0.0911990668696412
 10
0.2831083936043676
 20
0.0911883949487402
 10
0.2831100179504978
 20
0.0911776435925744
 10
0.283111180331721
 20
0.0911668325320509
 10
0.2831118786148348
 20
0.0911559816076461
 10
0.2831121115183474
 20
0.0911451107329938
 10
0.2831117737300362
 20
0.0911296301138596
 10
0.2831107610081017
 20
0.0911141789629634
 10
0.2831090752803184
 20
0.0910987866924496
 10
0.2831067197555642
 20
0.09108348260238
 10
0.2831036989177144
 20
0.0910682958249596
 10
0.283100018517106
 20
0.0910532552690825
 10
0.2830956855595905
 20
0.0910383895653017
 10
0.283090708293199
 20
0.0910237270113292
 10
0.2830850961924404
 20
0.0910092955181701
 10
0.2830788599402679
 20
0.0909951225569914
 10
0.2830720114077418
 20
0.0909812351068306
 10
0.2830645636314333
 20
0.0909676596032382
 10
0.2830565307886075
 20
0.090954421887957
 10
0.2830479281702374
 20
0.0909415471597304
 10
0.2830387721518961
 20
0.0909290599263353
 10
0.2830290801625849
 20
0.0909169839579301
 10
0.2830188706515565
 20
0.0909053422418073
 10
0.2830081630531947
 20
0.0908941569386349
 10
0.2829969777500222
 20
0.0908834493402733
 10
0.2829853360338996
 20
0.0908732398292448
 10
0.2829732600654945
 20
0.0908635478399336
 10
0.2829607728320992
 20
0.0908543918215923
 10
0.2829478981038726
 20
0.0908457892032222
 10
0.2829346603885915
 20
0.0908377563603963
 10
0.2829210848849991
 20
0.0908303085840876
 10
0.2829071974348381
 20
0.0908234600515617
 10
0.2828930244736596
 20
0.0908172237993891
 10
0.2828785929805002
 20
0.0908116116986305
 10
0.282863930426528
 20
0.0908066344322389
 10
0.2828490647227469
 20
0.0908023014747234
 10
0.2828340241668699
 20
0.0907986210741149
 10
0.2828188373894496
 20
0.0907956002362653
 10
0.2828035332993799
 20
0.0907932447115111
 10
0.2827881410288661
 20
0.0907915589837277
 10
0.2827726898779699
 20
0.0907905462617933
 10
0.2827572092588356
 20
0.0907902084734823
 10
0.2824731936452212
 20
0.0907902084734823
 10
0.282458793327042
 20
0.0907905226895428
 10
0.2824444204206869
 20
0.0907914647395961
 10
0.2824301022858002
 20
0.0907930328303963
 10
0.2824158661777652
 20
0.0907952239769933
 10
0.2824017391958229
 20
0.0907980340084153
 10
0.2823877482314862
 20
0.0908014575756079
 10
0.2823739199173508
 20
0.0908054881616159
 10
0.2823602805763988
 20
0.0908101180939903
 10
0.2823468561718913
 20
0.0908153385593911
 10
0.2823336722579443
 20
0.090821139620366
 10
0.2823207539308881
 20
0.090827510234266
 10
0.2823081257814922
 20
0.0908344382742649
 10
0.2822958118481565
 20
0.0908419105524449
 10
0.2822838355711536
 20
0.0908499128449003
 10
0.2822722197480068
 20
0.0908584299188119
 10
0.2822609864900963
 20
0.090867445561446
 10
0.2822501571805663
 20
0.0908769426110142
 10
0.2822397524336236
 20
0.0908869029893427
 10
0.282229792055295
 20
0.0908973077362855
 10
0.2822202950057269
 20
0.0909081370458155
 10
0.2822112793630928
 20
0.0909193703037261
 10
0.2822027622891812
 20
0.0909309861268728
 10
0.2821947599967259
 20
0.0909429624038756
 10
0.2821872877185455
 20
0.0909552763372113
 10
0.2821803596785469
 20
0.0909679044866071
 10
0.282173989064647
 20
0.0909808228136635
 10
0.2821681880036722
 20
0.0909940067276102
 10
0.2821629675382714
 20
0.0910074311321181
 10
0.282158337605897
 20
0.0910210704730699
 10
0.2821543070198886
 20
0.0910348987872053
 10
0.2821508834526965
 20
0.0910488897515419
 10
0.2821480734212744
 20
0.0910630167334844
 10
0.2821458822746769
 20
0.0910772528415194
 10
0.2821443141838766
 20
0.0910915709764061
 10
0.2821433721338235
 20
0.0911059438827609
 10
0.2821430579177635
 20
0.0911203442009401
 10
0.2819331379177633
 20
0.0911203442009401
 10
0.2819336519311492
 20
0.0910967873009654
 10
0.2819351929928535
 20
0.0910732752428884
 10
0.2819377581693776
 20
0.0910498527832484
 10
0.2819413425777618
 20
0.0910265645080284
 10
0.2819459393948817
 20
0.091003454747784
 10
0.2819515398704343
 20
0.0909805674932575
 10
0.2819581333435959
 20
0.0909579463116382
 10
0.2819657072633159
 20
0.0909356342636313
 10
0.281974247212207
 20
0.0909136738214881
 10
0.2819837369339923
 20
0.0908921067881587
 10
0.2819941583644461
 20
0.0908709742177168
 10
0.2820054916657831
 20
0.0908503163372113
 10
0.2820177152644212
 20
0.0908301724700915
 10
0.282030805892044
 20
0.090810580961354
 10
0.2820447386298989
 20
0.0907915791045486
 10
0.2820594869562274
 20
0.09077320307079
 10
0.2820750227967521
 20
0.0907554878399029
 10
0.2820913165781173
 20
0.0907384671338361
 10
0.2821083372841837
 20
0.0907221733524709
 10
0.282126052515071
 20
0.0907066375119464
 10
0.2821444285488297
 20
0.090691889185618
 10
0.2821634304056346
 20
0.0906779564477631
 10
0.2821830219143727
 20
0.0906648658201399
 10
0.2822031657814921
 20
0.0906526422215023
 10
0.2822238236619976
 20
0.090641308920165
 10
0.2822449562324397
 20
0.0906308874897114
 10
0.2822665232657691
 20
0.0906213977679265
 10
0.2822884837079118
 20
0.0906128578190348
 10
0.2823107957559189
 20
0.0906052838993148
 10
0.2823334169375382
 20
0.0905986904261534
 10
0.2823563041920652
 20
0.0905930899506009
 10
0.2823794139523094
 20
0.0905884931334811
 10
0.2824027022275295
 20
0.0905849087250966
 10
0.2824261246871696
 20
0.0905823435485725
 10
0.2824496367452463
 20
0.0905808024868683
 10
0.2824731936452212
 20
0.0905802884734823
 10
0.2827572092588356
 20
0.0905802884734823
 10
0.2827818464597658
 20
0.090580826059119
 10
0.2828064367623834
 20
0.0905824377927042
 10
0.2828309333576506
 20
0.0905851206062116
 10
0.2828552896149056
 20
0.0905888693927528
 10
0.2828794591706279
 20
0.0905936770163003
 10
0.2829033960166947
 20
0.0905995343252686
 10
0.2829270545879601
 20
0.0906064301699378
 10
0.2829503898489871
 20
0.0906143514236753
 10
0.2829733573797817
 20
0.0906232830079244
 10
0.2829959134603426
 20
0.0906332079209068
 10
0.2830180151538891
 20
0.0906441072699869
 10
0.2830396203885914
 20
0.090655960307634
 10
0.283060688037657
 20
0.0906687444709171
 10
0.2830811779976178
 20
0.0906824354244551
 10
0.2831010512646715
 20
0.0906970071067397
 10
0.2831202700089249
 20
0.0907124317797453
 10
0.2831387976464048
 20
0.0907286800817301
 10
0.2831565989087012
 20
0.0907457210831282
 10
0.2831736399100994
 20
0.0907635223454246
 10
0.2831898882120844
 20
0.0907820499829048
 10
0.28320531288509
 20
0.0908012687271576
 10
0.2832198845673745
 20
0.0908211419942115
 10
0.2832335755209124
 20
0.0908416319541728
 10
0.2832463596841957
 20
0.0908626996032381
 10
0.2832582127218426
 20
0.0908843048379401
 10
0.2832691120709224
 20
0.0909064065314867
 10
0.2832790369839052
 20
0.0909289626120478
 10
0.2832879685681544
 20
0.0909519301428423
 10
0.2832958898218916
 20
0.0909752654038697
 10
0.2833027856665609
 20
0.0909989239751347
 10
0.2833086429755292
 20
0.0910228608212017
 10
0.2833134505990763
 20
0.0910470303769241
 10
0.283317199385618
 20
0.0910713866341788
 10
0.2833198821991255
 20
0.091095883229446
 10
0.2833214939327105
 20
0.0911204735320638
 10
0.2833220315183471
 20
0.0911451107329941
 10
0.2833215912040394
 20
0.0911653143709293
 10
0.2833202710972637
 20
0.091185479642577
 10
0.2833180737048748
 20
0.0912055682545053
 10
0.283315003199676
 20
0.0912255420588586
 10
0.2833110654124921
 20
0.0912453631257981
 10
0.2833062678210994
 20
0.0912649938155299
 10
0.2833006195360242
 20
0.091284396849783
 10
0.283294131283242
 20
0.0913035353825992
 10
0.2832868153838099
 20
0.0913223730703027
 10
0.2832786857304684
 20
0.0913408741405169
 10
0.2832697577612604
 20
0.0913590034600941
 10
0.2832600484302132
 20
0.0913767266018343
 10
0.2832495761751452
 20
0.0913940099098599
 10
0.2832383608826498
 20
0.0914108205635286
 10
0.2832264238503349
 20
0.091427126639759
 10
0.2832137877463762
 20
0.0914428971736515
 10
0.2832004765664717
 20
0.0914581022172909
 10
0.2831865155882751
 20
0.0914727128966152
 10
0.2831719313233938
 20
0.0914867014662488
 10
0.2831567514670436
 20
0.0915000413621892
 10
0.2831410048454551
 20
0.0915127072522515
 10
0.283124721361135
 20
0.0915246750841737
 10
0.2831079319360817
 20
0.0915359221312927
 10
0.2830906684530634
 20
0.0915464270356995
 10
0.2830779161121815
 20
0.0915534445658962
 10
0.2829732545176816
 20
0.0915996075099905
 10
0.2828658975674587
 20
0.0916422353757085
 10
0.282757020750162
 20
0.0916808163082028
 10
0.282646776558248
 20
0.0917152962711661
 10
0.2825353193993117
 20
0.091745626972093
 10
0.2824228053798273
 20
0.0917717659299192
 10
0.282412035035999
 20
0.0917743003928092
 10
0.2824013839502483
 20
0.0917772967540431
 10
0.2823908719217865
 20
0.0917807494437105
 10
0.2823805184913338
 20
0.0917846520436363
 10
0.2823703429047935
 20
0.0917889972993109
 10
0.2823603640774761
 20
0.0917937771333758
 10
0.2823506005589381
 20
0.0917989826606382
 10
0.2823410704985014
 20
0.0918046042045882
 10
0.2823317916115122
 20
0.0918106313153858
 10
0.2823227811464158
 20
0.0918170527892867
 10
0.2823140558526873
 20
0.0918238566894675
 10
0.2823056319497009
 20
0.0918310303682167
 10
0.282297525096578
 20
0.0918385604904441
 10
0.2822897503630781
 20
0.0918464330584702
 10
0.2822823222015872
 20
0.0918546334380457
 10
0.2822752544202507
 20
0.0918631463855551
 10
0.2822685601573069
 20
0.0918719560763532
 10
0.2822622518566638
 20
0.0918810461341809
 10
0.2822563412447675
 20
0.0918903996616082
 10
0.282250839308804
 20
0.0918999992714424
 10
0.282245756276275
 20
0.0919098271190514
 10
0.2822411015959857
 20
0.0919198649355333
 10
0.2822368839204817
 20
0.091930094061677
 10
0.2822331110899643
 20
0.0919404954826472
 10
0.2822297901177153
 20
0.0919510498633321
 10
0.2822269271770614
 20
0.0919617375842834
 10
0.2822245275898992
 20
0.0919725387781882
 10
0.2822225958168001
 20
0.0919834333667996
 10
0.2822211354487211
 20
0.0919944010982601
 10
0.2822201492003275
 20
0.0920054215847477
 10
0.2822196389049475
 20
0.0920164743403744
 10
0.282219605511166
 20
0.0920275388192674
 10
0.282220049081058
 20
0.0920385944537616
 10
0.282220968790075
 20
0.0920496206926328
 10
0.2822223629285776
 20
0.0920605970392997
 10
0.282224228905014
 20
0.0920715030899257
 10
0.2822265632507366
 20
0.0920823185713464
 10
0.28222936162645
 20
0.0920930233787566
 10
0.2822326188302775
 20
0.0921035976130809
 10
0.2822363288074312
 20
0.0921140216179655
 10
0.2822404846614658
 20
0.0921242760163177
 10
0.2822450786670997
 20
0.0921343417463235
 10
0.282250102284576
 20
0.0921442000968839
 10
0.2822555461755344
 20
0.0921538327423953
 10
0.2822614002203729
 20
0.0921632217768157
 10
0.2822676535370577
 20
0.0921723497469494
 10
0.2822742945013517
 20
0.0921811996848903
 10
0.2822813107684235
 20
0.0921897551395653
 10
0.2822886892957946
 20
0.0921980002073125
 10
0.2822964163675828
 20
0.0922059195614461
 10
0.2823044776200015
 20
0.0922134984807468
 10
0.2823128580680568
 20
0.0922207228768258
 10
0.2823215421334062
 20
0.0922275793203157
 10
0.2823305136733141
 20
0.0922340550658322
 10
0.2823397560106626
 20
0.0922401380756672
 10
0.2823492519649499
 20
0.092245817042166
 10
0.2823589838842274
 20
0.0922510814087465
 10
0.282368933677914
 20
0.0922559213895226
 10
0.2823790828504234
 20
0.0922603279874953
 10
0.2823894125355455
 20
0.0922642930112777
 10
0.2823999035315171
 20
0.0922678090903209
 10
0.282410536336716
 20
0.0922708696886154
 10
0.2824212911859116
 20
0.0922734691168417
 10
0.282432148087006
 20
0.0922756025429449
 10
0.2824430868582001
 20
0.092277266001117
 10
0.2824540871655047
 20
0.0922784563991701
 10
0.2824651285605427
 20
0.0922791715242838
 10
0.2824761905185599
 20
0.0922794100471174
 10
0.2826563567592654
 20
0.0922794100471174
 10
0.2826772378126473
 20
0.0922789682140622
 10
0.2826980814868645
 20
0.0922776435058217
 10
0.2827188504696642
 20
0.0922754382937556
 10
0.2827395075824992
 20
0.0922723565254131
 10
0.2827600158470802
 20
0.0922684037174664
 10
0.2827803385515718
 20
0.0922635869458352
 10
0.2828004393163088
 20
0.0922579148330206
 10
0.2828202821589209
 20
0.0922513975326694
 10
0.2828398315587432
 20
0.0922440467113981
 10
0.2828590525204047
 20
0.0922358755279088
 10
0.2828779106364684
 20
0.0922268986094339
 10
0.28289637214903
 20
0.0922171320255507
 10
0.2829144040101426
 20
0.0922065932594176
 10
0.2829319739409791
 20
0.0921953011764753
 10
0.2829490504896146
 20
0.0921832759906766
 10
0.2829656030873263
 20
0.0921705392283014
 10
0.282981602103315
 20
0.092157113689423
 10
0.2829970188977502
 20
0.0921430234070929
 10
0.2830118258730336
 20
0.0921282936043196
 10
0.2830259965232059
 20
0.0921129506489166
 10
0.2830395054813913
 20
0.0920970220063021
 10
0.2830523285652096
 20
0.0920805361903328
 10
0.2830644428200643
 20
0.0920635227122607
 10
0.2830758265602323
 20
0.0920460120279058
 10
0.2830864594076857
 20
0.0920280354831369
 97
        0
 75
     0
 76
     1
 98
        0
  0
HATCH
  5
63
330
3F
100
AcDbEntity
 67
     1
  8
STANDARD
  6
AUSGEZOGEN
 62
   250
370
    25
100
AcDbHatch
 10
0.0
 20
0.0
 30
0.0
210
0.0
220
0.0
230
1.0
  2
SOLID
 70
     1
 71
     0
 91
        1
 92
        3
 72
     0
 73
     1
 93
        4
 10
0.2844268013828439
 20
0.0924893300471174
 10
0.2844268013828439
 20
0.0905802884734823
 10
0.2846367213828438
 20
0.0905802884734823
 10
0.2846367213828438
 20
0.0924893300471174
 97
        0
 75
     0
 76
     1
 98
        0
  0
HATCH
  5
64
330
3F
100
AcDbEntity
 67
     1
  8
STANDARD
  6
AUSGEZOGEN
 62
   250
370
    25
100
AcDbHatch
 10
0.0
 20
0.0
 30
0.0
210
0.0
220
0.0
230
1.0
  2
SOLID
 70
     1
 71
     0
 91
        1
 92
        3
 72
     0
 73
     1
 93
      237
 10
0.2869549842471712
 20
0.092054520625635
 10
0.2871252610771842
 20
0.0921772895449947
 10
0.2871056180028476
 20
0.0922033240297531
 10
0.2870848640071769
 20
0.0922284818601395
 10
0.2870630381665518
 20
0.0922527156680749
 10
0.2870401815754598
 20
0.0922759798252634
 10
0.2870163372691222
 20
0.0922982305291022
 10
0.2869915501424679
 20
0.0923194258851564
 10
0.2869658668656012
 20
0.0923395259860374
 10
0.2869393357959309
 20
0.0923584929865435
 10
0.2869120068871218
 20
0.0923762911749155
 10
0.2868839315950374
 20
0.0923928870400765
 10
0.2868551627808613
 20
0.0924082493347267
 10
0.2868257546115632
 20
0.0924223491341786
 10
0.2867957624579158
 20
0.0924351598908164
 10
0.2867652427902382
 20
0.0924466574840811
 10
0.2867342530720714
 20
0.0924568202658852
 10
0.2867028516519861
 20
0.0924656291013733
 10
0.2866710976537186
 20
0.0924730674049488
 10
0.2866390508648538
 20
0.0924791211715033
 10
0.2866067716242527
 20
0.0924837790027844
 10
0.2865743207084445
 20
0.0924870321288582
 10
0.2865417592171955
 20
0.0924888744246199
 10
0.2865091484584666
 20
0.0924893024213281
 10
0.2864765498329823
 20
0.092488315313135
 10
0.2864440247186218
 20
0.0924859149586042
 10
0.2864116343548549
 20
0.0924821058772102
 10
0.2863794397274371
 20
0.0924768952408304
 10
0.2863475014535859
 20
0.0924702928602407
 10
0.2863158796678463
 20
0.0924623111666435
 10
0.286284633908868
 20
0.0924529651882621
 10
0.2862538230073036
 20
0.0924422725220453
 10
0.2862235049750403
 20
0.0924302533005343
 10
0.286193736895974
 20
0.0924169301539568
 10
0.2861645748185269
 20
0.0924023281676186
 10
0.2861360736501213
 20
0.0923864748346711
 10
0.2861082870537943
 20
0.0923694000043468
 10
0.2860812673471615
 20
0.0923511358257582
 10
0.2860550654039103
 20
0.0923317166873657
 10
0.286029730558014
 20
0.0923111791522302
 10
0.2860053105108424
 20
0.0922895618891707
 10
0.2859818512413497
 20
0.0922669055999575
 10
0.285959396919503
 20
0.0922432529426766
 10
0.2859379898231171
 20
0.0922186484514124
 10
0.2859176702582527
 20
0.0921931384523972
 10
0.2858984764833261
 20
0.0921667709767863
 10
0.2858804446370757
 20
0.0921395956702223
 10
0.285863608670518
 20
0.0921116636993623
 10
0.2858480002830247
 20
0.0920830276555383
 10
0.2858336488626355
 20
0.092053741455736
 10
0.2858205814307273
 20
0.0920238602410792
 10
0.2858088225911373
 20
0.0919934402730067
 10
0.2857983944838363
 20
0.0919625388273422
 10
0.2857893167432442
 20
0.0919312140864527
 10
0.2857816064612623
 20
0.0918995250297012
 10
0.2857752781550901
 20
0.0918675313223977
 10
0.2857703437398926
 20
0.0918352932034591
 10
0.2857668125063665
 20
0.0918028713719898
 10
0.2857646911032471
 20
0.0917703268729945
 10
0.2857639835247886
 20
0.0917377209824415
 10
0.2857639835247886
 20
0.0913168244550428
 10
0.2857646839682924
 20
0.0912847103916719
 10
0.2857667839665646
 20
0.0912526574090567
 10
0.2857702795254212
 20
0.0912207264717767
 10
0.2857751639963305
 20
0.0911889783122834
 10
0.2857814280890576
 20
0.0911574733153847
 10
0.2857890598893358
 20
0.0911262714033951
 10
0.2857980448815275
 20
0.091095431922164
 10
0.2858083659762305
 20
0.0910650135281992
 10
0.2858200035427865
 20
0.0910350740771028
 10
0.285832935446612
 20
0.0910056705135311
 10
0.2858471370913052
 20
0.0909768587628847
 10
0.2858625814654224
 20
0.0909486936249407
 10
0.2858792391938571
 20
0.0909212286696217
 10
0.2858970785937102
 20
0.0908945161351076
 10
0.2859160657345504
 20
0.0908686068284782
 10
0.2859361645029497
 20
0.0908435500290793
 10
0.2859573366711715
 20
0.0908193933947928
 10
0.2859795419698796
 20
0.0907961828713912
 10
0.2860027381647291
 20
0.090773962605151
 10
0.2860268811366966
 20
0.0907527748588846
 10
0.2860519249659954
 20
0.0907326599315581
 10
0.2860778220194121
 20
0.0907136560816426
 10
0.286104523040907
 20
0.0906957994543459
 10
0.2861319772452978
 20
0.0906791240128659
 10
0.2861601324148529
 20
0.0906636614737924
 10
0.2861889349986092
 20
0.0906494412467811
 10
0.2862183302142252
 20
0.0906364903786187
 10
0.2862482621521783
 20
0.0906248335017782
 10
0.2862786738821017
 20
0.0906144927875697
 10
0.2863095075610687
 20
0.0906054879039692
 10
0.2863407045436064
 20
0.090597835978211
 10
0.2863722054932427
 20
0.0905915515642123
 10
0.28640395049536
 20
0.0905866466148901
 10
0.2864358791711554
 20
0.0905831304594293
 10
0.2864679307924801
 20
0.0905810097855359
 10
0.2865000443973422
 20
0.0905802886267189
 10
0.2865321589058588
 20
0.0905809683546183
 10
0.2865642132364279
 20
0.0905830476763956
 10
0.2865961464219056
 20
0.0905865226371932
 10
0.2866278977255646
 20
0.0905913866276567
 10
0.2866594067566168
 20
0.0905976303965052
 10
0.2866906135850744
 20
0.0906052420681284
 10
0.2867214588557372
 20
0.0906142071651722
 10
0.2867518839010866
 20
0.0906245086360761
 10
0.2867818308528686
 20
0.0906361268875043
 10
0.2868112427521612
 20
0.0906490398216127
 10
0.2868400636577087
 20
0.0906632228780782
 10
0.2868682387523225
 20
0.0906786490808124
 10
0.2868957144471417
 20
0.0906952890892707
 10
0.2869224384835595
 20
0.0907131112542572
 10
0.2869483600326203
 20
0.090732081678121
 10
0.2869483600326203
 20
0.0905802884734823
 10
0.2871582800326205
 20
0.0905802884734823
 10
0.2871582800326205
 20
0.0916067373401985
 10
0.2864863362929916
 20
0.0916067373401985
 10
0.2864863362929916
 20
0.0913968173401984
 10
0.2869483600326203
 20
0.0913968173401984
 10
0.2869483600326203
 20
0.0910397626296971
 10
0.286935998753371
 20
0.0910207126223712
 10
0.2869228276701604
 20
0.0910022132556023
 10
0.2869088712755334
 20
0.09098429893025
 10
0.2868941555223785
 20
0.0909670029592489
 10
0.2868787077756615
 20
0.0909503575056604
 10
0.2868625567615422
 20
0.090934393522864
 10
0.2868457325139558
 20
0.0909191406969961
 10
0.2868282663187613
 20
0.0909046273917482
 10
0.2868101906555637
 20
0.090890880595621
 10
0.2867915391373163
 20
0.0908779258717384
 10
0.2867723464478159
 20
0.0908657873103109
 10
0.2867526482772028
 20
0.0908544874838381
 10
0.2867324812555969
 20
0.0908440474051338
 10
0.2867118828849783
 20
0.0908344864882505
 10
0.2866908914694495
 20
0.0908258225123785
 10
0.2866695460440093
 20
0.0908180715887839
 10
0.2866478863019613
 20
0.0908112481308484
 10
0.286625952521102
 20
0.0908053648272667
 10
0.2866037854888242
 20
0.0908004326184513
 10
0.2865814264262668
 20
0.0907964606761877
 10
0.2865589169116617
 20
0.0907934563865788
 10
0.2865362988030186
 20
0.0907914253363105
 10
0.2865136141602834
 20
0.0907903713022616
 10
0.2864909051671277
 20
0.0907902962444821
 10
0.2864682140525052
 20
0.0907912003025471
 10
0.286445583012122
 20
0.0907930817952976
 10
0.2864230541299725
 20
0.0907959372239671
 10
0.2864006693000804
 20
0.0907997612786872
 10
0.2863784701485944
 20
0.090804546848362
 10
0.2863564979563822
 20
0.0908102850338918
 10
0.286334793582263
 20
0.0908169651647215
 10
0.286313397387031
 20
0.0908245748186826
 10
0.286292349158401
 20
0.0908330998450942
 10
0.2862716880370169
 20
0.0908425243910766
 10
0.2862514524436736
 20
0.0908528309310309
 10
0.2862316800078634
 20
0.0908640002992286
 10
0.2862124074978071
 20
0.0908760117254527
 10
0.2861936707520781
 20
0.0908888428736198
 10
0.2861755046129595
 20
0.0909024698833175
 10
0.2861579428616493
 20
0.0909168674141732
 10
0.2861410181554478
 20
0.0909320086929761
 10
0.2861247619670232
 20
0.0909478655634647
 10
0.2861092045258887
 20
0.0909644085386854
 10
0.286094374762189
 20
0.0909816068558243
 10
0.2860803002529013
 20
0.090999428533414
 10
0.2860670071705552
 20
0.0910178404308051
 10
0.2860545202345623
 20
0.0910368083097933
 10
0.2860428626652485
 20
0.0910562968982877
 10
0.2860320561406759
 20
0.0910762699559017
 10
0.2860221207563282
 20
0.0910966903413453
 10
0.2860130749877442
 20
0.0911175200814908
 10
0.2860049356561601
 20
0.0911387204419868
 10
0.2859977178972291
 20
0.091160251999288
 10
0.2859914351328762
 20
0.0911820747139652
 10
0.2859860990463391
 20
0.0912041480051622
 10
0.2859817195604417
 20
0.0912264308260581
 10
0.2859783048191428
 20
0.0912488817401968
 10
0.2859758611723915
 20
0.0912714589985413
 10
0.2859743931643194
 20
0.0912941206171088
 10
0.2859739035247891
 20
0.0913168244550428
 10
0.2859739035247891
 20
0.0917377209824415
 10
0.2859744134807368
 20
0.0917612202391518
 10
0.2859759423884174
 20
0.091784675250606
 10
0.2859784873691467
 20
0.0918080418548542
 10
0.2859820436311435
 20
0.0918312760564034
 10
0.2859866044785478
 20
0.0918543341090522
 10
0.2859921613240294
 20
0.0918771725982602
 10
0.2859987037049581
 20
0.0918997485228879
 10
0.2860062193031005
 20
0.0919220193761624
 10
0.286014693967815
 20
0.0919439432257103
 10
0.2860241117426934
 20
0.0919654787925088
 10
0.2860344548956075
 20
0.0919865855286093
 10
0.2860457039520916
 20
0.0920072236934799
 10
0.2860578377320123
 20
0.0920273544288326
 10
0.2860708333894479
 20
0.0920469398317858
 10
0.2860846664557005
 20
0.0920659430262294
 10
0.2860993108853693
 20
0.0920843282322572
 10
0.2861147391053891
 20
0.0921020608335337
 10
0.2861309220669451
 20
0.0921191074424713
 10
0.2861478293001686
 20
0.0921354359630943
 10
0.2861654289715052
 20
0.0921510156514694
 10
0.286183687943652
 20
0.0921658171735918
 10
0.2862025718379522
 20
0.092179812660617
 10
0.286222045099122
 20
0.0921929757613323
 10
0.2862420710621952
 20
0.0922052816917721
 10
0.2862626120215602
 20
0.0922167072818825
 10
0.2862836293019503
 20
0.0922272310191466
 10
0.2863050833312653
 20
0.0922368330890888
 10
0.2863269337150766
 20
0.0922454954125816
 10
0.2863491393126872
 20
0.0922532016798875
 10
0.2863716583145877
 20
0.0922599373813654
 10
0.2863944483211824
 20
0.0922656898347915
 10
0.2864174664226168
 20
0.0922704482092371
 10
0.2864406692795717
 20
0.0922742035454611
 10
0.2864640132048623
 20
0.0922769487727801
 10
0.2864874542456968
 20
0.0922786787223802
 10
0.2865109482664288
 20
0.0922793901370489
 10
0.286534451031662
 20
0.0922790816773091
 10
0.2865579182895333
 20
0.0922777539239398
 10
0.2865813058550353
 20
0.0922754093768834
 10
0.2866045696932081
 20
0.0922720524505388
 10
0.2866276660020496
 20
0.0922676894654488
 10
0.2866505512949892
 20
0.0922623286364008
 10
0.2866731824827636
 20
0.0922559800569588
 10
0.2866955169545487
 20
0.0922486556804596
 10
0.286717512658187
 20
0.0922403692975056
 10
0.2867391281793674
 20
0.0922311365100006
 10
0.2867603228195991
 20
0.0922209747017731
 10
0.2867810566728421
 20
0.0922099030058457
 10
0.2868012907006423
 20
0.0921979422684105
 10
0.2868209868056353
 20
0.0921851150095797
 10
0.2868401079032777
 20
0.0921714453809832
 10
0.2868586179916699
 20
0.0921569591202956
 10
0.2868764822193443
 20
0.0921416835027758
 10
0.2868936669508824
 20
0.0921256472899127
 10
0.2869101398302452
 20
0.0921088806752721
 10
0.2869258698416959
 20
0.0920914152276466
 10
0.2869408273681963
 20
0.0920732838316165
 97
        0
 75
     0
 76
     1
 98
        0
  0
HATCH
  5
65
330
3F
100
AcDbEntity
 67
     1
  8
STANDARD
  6
AUSGEZOGEN
 62
   250
370
    25
100
AcDbHatch
 10
0.0
 20
0.0
 30
0.0
210
0.0
220
0.0
230
1.0
  2
SOLID
 70
     1
 71
     0
 91
        1
 92
        3
 72
     0
 73
     1
 93
       10
 10
0.2883402697120275
 20
0.0924893300471174
 10
0.2883402697120275
 20
0.0905802884734823
 10
0.2885501897120278
 20
0.0905802884734823
 10
0.2885501897120278
 20
0.0921118891322595
 10
0.2894344597646634
 20
0.0905802884734823
 10
0.2896443797646637
 20
0.0905802884734823
 10
0.2896443797646637
 20
0.0924893300471174
 10
0.2894344597646634
 20
0.0924893300471174
 10
0.2894344597646634
 20
0.0909577293883403
 10
0.2885501897120278
 20
0.0924893300471174
 97
        0
 75
     0
 76
     1
 98
        0
  0
MTEXT
  5
88
330
3F
100
AcDbEntity
 67
     1
  8
STANDARD
  6
AUSGEZOGEN
 62
     7
370
    25
100
AcDbMText
 10
0.290246
 20
0.009074
 30
0.0
 40
0.000962
 41
0.05564
 71
     3
 72
     5
  3
{\fCalibri|i0|b0;\H0.000962;\W0.987654;\C7;Diese Zeichnung ist urheberrechtlich geschützt und darf ohne unsere Genehmigung weder}\P{\fCalibri|i0|b0;\H0.000962;\W0.987654;\C7;vervielfältigt noch auf irgendwelche Art kopiert oder Dritten zugänglich ge
  1
macht werden!}\P
  7
ARIAL
 73
     1
 44
1.084337
  0
MTEXT
  5
89
330
3F
100
AcDbEntity
 67
     1
  8
STANDARD
  6
AUSGEZOGEN
 62
    94
370
    25
100
AcDbMText
 10
0.213361
 20
0.141398
 30
0.0
 40
0.0025
 41
0.022292
 71
     7
 72
     5
  1
{\L\fCalibri|i0|b0;\H0.002500;\W1.000000;\C94;Farblegende:\l}\P
  7
CALIBRI
 73
     1
 44
1.0
  0
MTEXT
  5
8A
330
3F
100
AcDbEntity
 67
     1
  8
STANDARD
  6
AUSGEZOGEN
 62
     7
370
    25
100
AcDbMText
 10
0.213361
 20
0.134232
 30
0.0
 40
0.002
 41
0.035033
 71
     7
 72
     5
  1
{\fCalibri|i0|b0;\H0.002000;\W1.000000;\C7;Nature Look       betongrau}\P
  7
CALIBRI
 73
     1
 44
1.0
  0
MTEXT
  5
8B
330
3F
100
AcDbEntity
 67
     1
  8
STANDARD
  6
AUSGEZOGEN
 62
     7
370
    25
100
AcDbMText
 10
0.213361
 20
0.129482
 30
0.0
 40
0.002
 41
0.036133
 71
     7
 72
     5
  1
{\fCalibri|i0|b0;\H0.002000;\W1.000000;\C7;Nature Look       dunkelgrau}\P
  7
CALIBRI
 73
     1
 44
1.0
  0
MTEXT
  5
8C
330
3F
100
AcDbEntity
 67
     1
  8
STANDARD
  6
AUSGEZOGEN
 62
     7
370
    25
100
AcDbMText
 10
0.213361
 20
0.124732
 30
0.0
 40
0.002
 41
0.036667
 71
     7
 72
     5
  1
{\fCalibri|i0|b0;\H0.002000;\W1.000000;\C7;Nature Look       creme weiß}\P
  7
CALIBRI
 73
     1
 44
1.0
  0
MTEXT
  5
8D
330
3F
100
AcDbEntity
 67
     1
  8
STANDARD
  6
AUSGEZOGEN
 62
     7
370
    25
100
AcDbMText
 10
0.213361
 20
0.115232
 30
0.0
 40
0.002
 41
0.020667
 71
     7
 72
     5
  1
{\fCalibri|i0|b0;\H0.002000;\W1.000000;\C7;Smooth Look    }\P
  7
CALIBRI
 73
     1
 44
1.0
  0
MTEXT
  5
8E
330
3F
100
AcDbEntity
 67
     1
  8
STANDARD
  6
AUSGEZOGEN
 62
     7
370
    25
100
AcDbMText
 10
0.234085
 20
0.11525
 30
0.0
 40
0.002
 41
0.018333
 71
     7
 72
     5
  1
{\fCalibri|i0|b0;\H0.002000;\W1.000000;\C7;nach RAL Ton}\P
  7
CALIBRI
 73
     1
 44
1.0
  0
MTEXT
  5
8F
330
3F
100
AcDbEntity
 67
     1
  8
STANDARD
  6
AUSGEZOGEN
 62
     7
370
    25
100
AcDbMText
 10
0.213361
 20
0.119982
 30
0.0
 40
0.002
 41
0.0332
 71
     7
 72
     5
  1
{\fCalibri|i0|b0;\H0.002000;\W1.000000;\C7;Nature Look       anthrazit}\P
  7
CALIBRI
 73
     1
 44
1.0
  0
MTEXT
  5
90
330
3F
100
AcDbEntity
 67
     1
  8
STANDARD
  6
AUSGEZOGEN
 62
     7
370
    25
100
AcDbMText
 10
0.289959
 20
0.071141
 30
0.0
 40
0.003257
 41
0.04734
 71
     9
 72
     5
  1
{\fCalibri|i0|b0;\H0.003257;\W1.000000;\C7;Projekt: Urban Design}\P
  7
CALIBRI
 73
     1
 44
1.0
  0
MTEXT
  5
91
330
3F
100
AcDbEntity
 67
     1
  8
STANDARD
  6
AUSGEZOGEN
 62
     7
370
    25
100
AcDbMText
 10
0.290313
 20
0.082368
 30
0.0
 40
0.0015
 41
0.005481
 71
     9
 72
     5
  1
{\fCalibri|i0|b0;\H0.001500;\W0.987654;\C7;2015}\P
  7
CALIBRI
 73
     1
 44
1.0
  0
MTEXT
  5
92
330
3F
100
AcDbEntity
 67
     1
  8
STANDARD
  6
AUSGEZOGEN
 62
     7
370
    25
100
AcDbMText
 10
0.282976
 20
0.082368
 30
0.0
 40
0.001503
 41
0.00683
 71
     9
 72
     5
  1
{\fCalibri|i0|b0;\H0.001500;\W0.987654;\C7;Stand:}\P
  7
CALIBRI
 73
     1
 44
1.0
  0
MTEXT
  5
93
330
3F
100
AcDbEntity
 67
     1
  8
STANDARD
  6
AUSGEZOGEN
 62
     7
370
    25
100
AcDbMText
 10
0.289959
 20
0.040507
 30
0.0
 40
0.001503
 41
0.036551
 71
     9
 72
     5
  1
{\fCalibri|i0|b0;\H0.001503;\W0.987654;\C7;Ihre Ansprechpartner bei Rückfragen:}\P
  7
CALIBRI
 73
     1
 44
1.0
  0
MTEXT
  5
94
330
3F
100
AcDbEntity
 67
     1
  8
STANDARD
  6
AUSGEZOGEN
 62
     7
370
    25
100
AcDbMText
 10
0.282976
 20
0.053118
 30
0.0
 40
0.001503
 41
0.009775
 71
     9
 72
     5
  1
{\fCalibri|i0|b0;\H0.001503;\W0.987654;\C7;Maßstab:}\P
  7
CALIBRI
 73
     1
 44
1.0
  0
MTEXT
  5
95
330
3F
100
AcDbEntity
 67
     1
  8
STANDARD
  6
AUSGEZOGEN
 62
     7
370
    25
100
AcDbMText
 10
0.28295
 20
0.050205
 30
0.0
 40
0.001503
 41
0.014922
 71
     9
 72
     5
  1
{\fCalibri|i0|b0;\H0.001503;\W0.987654;\C7;Plannnummer:}\P
  7
CALIBRI
 73
     1
 44
1.0
  0
MTEXT
  5
96
330
3F
100
AcDbEntity
 67
     1
  8
STANDARD
  6
AUSGEZOGEN
 62
     7
370
    25
100
AcDbMText
 10
0.290313
 20
0.050205
 30
0.0
 40
0.001503
 41
0.00193
 71
     9
 72
     5
  1
{\fCalibri|i0|b0;\H0.001503;\W0.987654;\C7;1}\P
  7
CALIBRI
 73
     1
 44
1.0
  0
CIRCLE
  5
97
330
3F
100
AcDbEntity
 67
     1
  8
STANDARD
  6
AUSGEZOGEN
 62
     7
370
    25
100
AcDbCircle
 10
0.246147
 20
0.038529
 30
0.0
 40
0.0005264453673353
  0
MTEXT
  5
98
330
3F
100
AcDbEntity
 67
     1
  8
STANDARD
  6
AUSGEZOGEN
 62
     7
370
    25
100
AcDbMText
 10
0.246147
 20
0.037656
 30
0.0
 40
0.0015
 41
0.001043
 71
     5
 72
     5
  1
\A1;{\fCalibri|i0|b1;\H0.000500;\W0.869565;\C7;\H1.0x;\SR^ ;}\P
  7
CALIBRI
 73
     1
 44
1.0
  0
MTEXT
  5
99
330
3F
100
AcDbEntity
 67
     1
  8
STANDARD
  6
AUSGEZOGEN
 62
     7
370
    25
100
AcDbMText
 10
0.23791
 20
0.037467
 30
0.0
 40
0.001503
 41
0.022856
 71
     7
 72
     5
  1
{\fCalibri|i0|b1;\H0.001503;\W0.869565;\C7;Concrete   Rudolph GmbH}\P
  7
CALIBRI
 73
     1
 44
1.0
  0
MTEXT
  5
9A
330
3F
100
AcDbEntity
 67
     1
  8
STANDARD
  6
AUSGEZOGEN
 62
     7
370
    25
100
AcDbMText
 10
0.260593
 20
0.037483
 30
0.0
 40
0.001082
 41
0.030255
 71
     7
 72
     5
  1
{\fCalibri|i0|b0;\H0.001082;\W0.987654;\C7;I Steinbißstr.15 I 88171 Weiler-Simmerberg}\P
  7
CALIBRI
 73
     1
 44
1.0
  0
MTEXT
  5
9B
330
3F
100
AcDbEntity
 67
     1
  8
STANDARD
  6
AUSGEZOGEN
 62
     7
370
    25
100
AcDbMText
 10
0.289972
 20
0.022836
 30
0.0
 40
0.001495
 41
0.019291
 71
     9
 72
     5
  1
{\fCalibri|i0|b0;\H0.001495;\W0.987654;\C7;C:         I                     I}\P
  7
CALIBRI
 73
     1
 44
1.0
  0
MTEXT
  5
9C
330
3F
100
AcDbEntity
 67
     1
  8
STANDARD
  6
AUSGEZOGEN
 62
     7
370
    25
100
AcDbMText
 10
0.289972
 20
0.019697
 30
0.0
 40
0.001495
 41
0.019463
 71
     9
 72
     5
  1
{\fCalibri|i0|b0;\H0.001495;\W0.987654;\C7;D:         I                     I}\P
  7
CALIBRI
 73
     1
 44
1.0
  0
MTEXT
  5
9D
330
3F
100
AcDbEntity
 67
     1
  8
STANDARD
  6
AUSGEZOGEN
 62
     7
370
    25
100
AcDbMText
 10
0.289972
 20
0.025975
 30
0.0
 40
0.001495
 41
0.019316
 71
     9
 72
     5
  1
{\fCalibri|i0|b0;\H0.001495;\W0.987654;\C7;B:         I                     I}\P
  7
CALIBRI
 73
     1
 44
1.0
  0
MTEXT
  5
9E
330
3F
100
AcDbEntity
 67
     1
  8
STANDARD
  6
AUSGEZOGEN
 62
     7
370
    25
100
AcDbMText
 10
0.289972
 20
0.029114
 30
0.0
 40
0.001495
 41
0.019389
 71
     9
 72
     5
  1
{\fCalibri|i0|b0;\H0.001495;\W0.987654;\C7;A:         I                     I}\P
  7
CALIBRI
 73
     1
 44
1.0
  0
MTEXT
  5
9F
330
3F
100
AcDbEntity
 67
     1
  8
STANDARD
  6
AUSGEZOGEN
 62
     7
370
    25
100
AcDbMText
 10
0.290313
 20
0.053118
 30
0.0
 40
0.001503
 41
0.004925
 71
     9
 72
     5
  1
{\fCalibri|i0|b0;\H0.001500;\W0.987654;\C7;1:25}\P
  7
CALIBRI
 73
     1
 44
1.0
  0
MTEXT
  5
A0
330
3F
100
AcDbEntity
 67
     1
  8
STANDARD
  6
AUSGEZOGEN
 62
     7
370
    25
100
AcDbMText
 10
0.289959
 20
0.065562
 30
0.0
 40
0.0025
 41
0.007375
 71
     9
 72
     5
  1
{\fCalibri|i0|b0;\H0.002500;\W1.000000;\C7;Krik}\P
  7
CALIBRI
 73
     1
 44
1.0
  0
MTEXT
  5
A1
330
3F
100
AcDbEntity
 67
     1
  8
STANDARD
  6
AUSGEZOGEN
 62
     7
370
    25
100
AcDbMText
 10
0.23791
 20
0.035427
 30
0.0
 40
0.00105
 41
0.049949
 71
     7
 72
     5
  1
{\fCalibri|i0|b0;\H0.001050;\W0.987654;\C7;Tel. +49 8384 8210-90 I Fax +49 8384 8210-91 I info@concrete-rudolph.de}\P
  7
CALIBRI
 73
     1
 44
1.0
  0
VIEWPORT
  5
18A
330
3F
100
AcDbEntity
 67
     1
  8
STANDARD
  6
AUSGEZOGEN
 62
     7
370
    25
100
AcDbViewport
 10
0.098334
 20
0.105071
 30
0.0
 40
0.133083
 41
0.147002
 68
     2
 69
     2
 12
0.0
 22
0.0
 13
0.0
 23
0.0
 14
1.0
 24
1.0
 15
0.0
 25
0.0
 16
0.0
 26
0.0
 36
1.0
 17
391.565692
 27
40.19495
 37
0.0
 42
50.0
 43
0.0
 44
0.0
 45
3.675051
 50
0.0
 51
0.0
 72
   100
331
10
331
47
331
BC
 90
   557280
  1

281
     0
 71
     1
 74
     0
110
0.0
120
0.0
130
0.0
111
1.0
121
0.0
131
0.0
112
0.0
122
1.0
132
0.0
 79
     0
146
0.0
170
     0
  0
ENDSEC
  0
SECTION
  2
OBJECTS
  0
DICTIONARY
  5
C
330
0
100
AcDbDictionary
281
     1
  3
ACAD_GROUP
350
D
  3
ACAD_LAYOUT
350
1A
  3
ACAD_MATERIAL
350
3B
  3
ACAD_MLEADERSTYLE
350
1B4
  3
ACAD_MLINESTYLE
350
17
  3
ACAD_PLOTSETTINGS
350
19
  3
ACAD_PLOTSTYLENAME
350
E
  3
ACAD_SCALELIST
350
66
  3
ACAD_TABLESTYLE
350
1B3
  3
ACAD_VISUALSTYLE
350
2A
  3
AcDbVariableDictionary
350
18B
  0
DICTIONARY
  5
A2
330
3F
100
AcDbDictionary
280
     1
281
     1
  3
ACAD_SORTENTS
360
A3
  0
DICTIONARY
  5
D
102
{ACAD_REACTORS
330
C
102
}
330
C
100
AcDbDictionary
281
     1
  0
DICTIONARY
  5
1A
102
{ACAD_REACTORS
330
C
102
}
330
C
100
AcDbDictionary
281
     1
  3
Model
350
22
  3
Pos. Kirk
350
40
  0
DICTIONARY
  5
3B
102
{ACAD_REACTORS
330
C
102
}
330
C
100
AcDbDictionary
281
     1
  3
ByBlock
350
3D
  3
ByLayer
350
3C
  3
Global
350
3E
  0
DICTIONARY
  5
1B4
102
{ACAD_REACTORS
330
C
102
}
330
C
100
AcDbDictionary
281
     1
  0
DICTIONARY
  5
17
102
{ACAD_REACTORS
330
C
102
}
330
C
100
AcDbDictionary
281
     1
  3
Standard
350
18
  0
DICTIONARY
  5
19
102
{ACAD_REACTORS
330
C
102
}
330
C
100
AcDbDictionary
281
     1
  0
ACDBDICTIONARYWDFLT
  5
E
102
{ACAD_REACTORS
330
C
102
}
330
C
100
AcDbDictionary
281
     1
  3
Normal
350
F
100
AcDbDictionaryWithDefault
340
F
  0
DICTIONARY
  5
66
102
{ACAD_REACTORS
330
C
102
}
330
C
100
AcDbDictionary
281
     1
  3
A0
350
67
  3
A1
350
68
  3
A2
350
69
  3
A3
350
6A
  3
A4
350
6B
  3
A5
350
6C
  3
A6
350
6D
  3
A7
350
6E
  3
A8
350
6F
  3
A9
350
70
  3
B0
350
71
  3
B1
350
72
  3
B2
350
73
  3
B3
350
74
  3
B4
350
75
  3
B5
350
76
  3
B6
350
77
  3
B7
350
78
  3
B8
350
79
  3
B9
350
7A
  3
C0
350
7B
  3
C1
350
7C
  3
C2
350
7D
  3
C3
350
7E
  3
C4
350
7F
  3
C5
350
80
  3
C6
350
81
  3
C7
350
82
  3
C8
350
83
  3
C9
350
84
  3
D0
350
85
  3
D1
350
86
  3
D2
350
87
  0
DICTIONARY
  5
1B3
102
{ACAD_REACTORS
330
C
102
}
330
C
100
AcDbDictionary
281
     1
  0
DICTIONARY
  5
2A
102
{ACAD_REACTORS
330
C
102
}
330
C
100
AcDbDictionary
281
     1
  3
2dWireframe
350
2F
  3
3D Hidden
350
31
  3
3dWireframe
350
30
  3
Basic
350
32
  3
Brighten
350
36
  3
ColorChange
350
3A
  3
Conceptual
350
34
  3
Dim
350
35
  3
Facepattern
350
39
  3
Flat
350
2B
  3
FlatWithEdges
350
2C
  3
Gouraud
350
2D
  3
GouraudWithEdges
350
2E
  3
Linepattern
350
38
  3
Realistic
350
33
  3
Thicken
350
37
  0
DICTIONARY
  5
18B
102
{ACAD_REACTORS
330
C
102
}
330
C
100
AcDbDictionary
281
     1
  3
CANNOSCALE
350
18C
  0
SORTENTSTABLE
  5
A3
102
{ACAD_REACTORS
330
A2
102
}
330
A2
100
AcDbSortentsTable
330
3F
331
43
  5
60
331
4A
  5
61
331
4B
  5
62
331
4C
  5
63
331
4D
  5
64
331
4E
  5
65
331
4F
  5
43
331
50
  5
4A
331
51
  5
4B
331
52
  5
4C
331
53
  5
4D
331
54
  5
4E
331
55
  5
4F
331
56
  5
50
331
57
  5
51
331
58
  5
52
331
59
  5
53
331
5A
  5
54
331
5B
  5
55
331
5C
  5
56
331
5D
  5
57
331
5E
  5
58
331
5F
  5
59
331
60
  5
5A
331
61
  5
5B
331
62
  5
5C
331
63
  5
5D
331
64
  5
5E
331
65
  5
5F
  0
LAYOUT
  5
22
102
{ACAD_REACTORS
330
1A
102
}
330
1A
100
AcDbPlotSettings
  1

  2
none_device
  4

  6

 40
0.0
 41
0.0
 42
0.0
 43
0.0
 44
0.0
 45
0.0
 46
0.0
 47
0.0
 48
0.0
 49
0.0
140
0.0
141
0.0
142
1.0
143
1.0
 70
  1712
 72
     0
 73
     0
 74
     0
  7

 75
     0
 76
     0
 77
     2
 78
   300
147
1.0
148
0.0
149
0.0
100
AcDbLayout
  1
Model
 70
     1
 71
     0
 10
389.904069
 20
38.259924
 11
393.426735
 21
42.029976
 12
0.0
 22
0.0
 32
0.0
 14
389.904069
 24
38.259924
 34
389.904069
 15
393.426735
 25
42.029976
 35
393.426735
146
0.0
 13
0.0
 23
0.0
 33
0.0
 16
1.0
 26
0.0
 36
0.0
 17
0.0
 27
1.0
 37
0.0
 76
     0
330
1F
331
29
  0
LAYOUT
  5
40
102
{ACAD_REACTORS
330
1A
102
}
330
1A
100
AcDbPlotSettings
  1

  2
none_device
  4
none_user_media
  6

 40
7.5
 41
20.0
 42
7.5
 43
20.0
 44
856.0
 45
1204.0
 46
7.5
 47
7.5
 48
0.0
 49
0.0
140
0.0
141
0.0
142
1.0
143
1000.0
 70
   688
 72
     1
 73
     1
 74
     5
  7

 75
    32
 76
     0
 77
     2
 78
   300
147
1000.0
148
0.0
149
0.0
100
AcDbLayout
  1
Pos. Kirk
 70
     0
 71
     1
 10
0.031793
 20
0.03157
 11
0.164876
 21
0.178572
 12
0.0
 22
0.0
 32
0.0
 14
0.031793
 24
0.03157
 34
0.0
 15
0.164876
 25
0.178572
 35
0.0
146
0.0
 13
0.0
 23
0.0
 33
0.0
 16
1.0
 26
0.0
 36
0.0
 17
0.0
 27
1.0
 37
0.0
 76
     0
330
3F
331
43
  0
MATERIAL
  5
3D
102
{ACAD_REACTORS
330
3B
102
}
102
{ACAD_XDICTIONARY
360
1AF
102
}
330
3B
100
AcDbMaterial
  1
ByBlock
  0
MATERIAL
  5
3C
102
{ACAD_REACTORS
330
3B
102
}
102
{ACAD_XDICTIONARY
360
1AD
102
}
330
3B
100
AcDbMaterial
  1
ByLayer
  0
MATERIAL
  5
3E
102
{ACAD_REACTORS
330
3B
102
}
102
{ACAD_XDICTIONARY
360
1B1
102
}
330
3B
100
AcDbMaterial
  1
Global
  0
MLINESTYLE
  5
18
102
{ACAD_REACTORS
330
17
102
}
330
17
100
AcDbMlineStyle
  2
Standard
 70
     0
  3

 62
   256
 51
90.0
 52
90.0
 71
     2
 49
0.5
 62
   256
  6
BYLAYER
 49
-0.5
 62
   256
  6
BYLAYER
  0
ACDBPLACEHOLDER
  5
F
102
{ACAD_REACTORS
330
E
102
}
330
E
  0
SCALE
  5
67
102
{ACAD_REACTORS
330
66
102
}
330
66
100
AcDbScale
 70
     0
300
1:1
140
1.0
141
1.0
290
     1
  0
SCALE
  5
68
102
{ACAD_REACTORS
330
66
102
}
330
66
100
AcDbScale
 70
     0
300
1:2
140
1.0
141
2.0
290
     0
  0
SCALE
  5
69
102
{ACAD_REACTORS
330
66
102
}
330
66
100
AcDbScale
 70
     0
300
1:4
140
1.0
141
4.0
290
     0
  0
SCALE
  5
6A
102
{ACAD_REACTORS
330
66
102
}
330
66
100
AcDbScale
 70
     0
300
1:5
140
1.0
141
5.0
290
     0
  0
SCALE
  5
6B
102
{ACAD_REACTORS
330
66
102
}
330
66
100
AcDbScale
 70
     0
300
1:8
140
1.0
141
8.0
290
     0
  0
SCALE
  5
6C
102
{ACAD_REACTORS
330
66
102
}
330
66
100
AcDbScale
 70
     0
300
1:10
140
1.0
141
10.0
290
     0
  0
SCALE
  5
6D
102
{ACAD_REACTORS
330
66
102
}
330
66
100
AcDbScale
 70
     0
300
1:16
140
1.0
141
16.0
290
     0
  0
SCALE
  5
6E
102
{ACAD_REACTORS
330
66
102
}
330
66
100
AcDbScale
 70
     0
300
1:20
140
1.0
141
20.0
290
     0
  0
SCALE
  5
6F
102
{ACAD_REACTORS
330
66
102
}
330
66
100
AcDbScale
 70
     0
300
1:30
140
1.0
141
30.0
290
     0
  0
SCALE
  5
70
102
{ACAD_REACTORS
330
66
102
}
330
66
100
AcDbScale
 70
     0
300
1:40
140
1.0
141
40.0
290
     0
  0
SCALE
  5
71
102
{ACAD_REACTORS
330
66
102
}
330
66
100
AcDbScale
 70
     0
300
1:50
140
1.0
141
50.0
290
     0
  0
SCALE
  5
72
102
{ACAD_REACTORS
330
66
102
}
330
66
100
AcDbScale
 70
     0
300
1:100
140
1.0
141
100.0
290
     0
  0
SCALE
  5
73
102
{ACAD_REACTORS
330
66
102
}
330
66
100
AcDbScale
 70
     0
300
2:1
140
2.0
141
1.0
290
     0
  0
SCALE
  5
74
102
{ACAD_REACTORS
330
66
102
}
330
66
100
AcDbScale
 70
     0
300
4:1
140
4.0
141
1.0
290
     0
  0
SCALE
  5
75
102
{ACAD_REACTORS
330
66
102
}
330
66
100
AcDbScale
 70
     0
300
8:1
140
8.0
141
1.0
290
     0
  0
SCALE
  5
76
102
{ACAD_REACTORS
330
66
102
}
330
66
100
AcDbScale
 70
     0
300
10:1
140
10.0
141
1.0
290
     0
  0
SCALE
  5
77
102
{ACAD_REACTORS
330
66
102
}
330
66
100
AcDbScale
 70
     0
300
100:1
140
100.0
141
1.0
290
     0
  0
SCALE
  5
78
102
{ACAD_REACTORS
330
66
102
}
330
66
100
AcDbScale
 70
     0
300
1/128" = 1'-0"
140
0.007812
141
12.0
290
     0
  0
SCALE
  5
79
102
{ACAD_REACTORS
330
66
102
}
330
66
100
AcDbScale
 70
     0
300
1/64" = 1'-0"
140
0.015625
141
12.0
290
     0
  0
SCALE
  5
7A
102
{ACAD_REACTORS
330
66
102
}
330
66
100
AcDbScale
 70
     0
300
1/32" = 1'-0"
140
0.03125
141
12.0
290
     0
  0
SCALE
  5
7B
102
{ACAD_REACTORS
330
66
102
}
330
66
100
AcDbScale
 70
     0
300
1/16" = 1'-0"
140
0.0625
141
12.0
290
     0
  0
SCALE
  5
7C
102
{ACAD_REACTORS
330
66
102
}
330
66
100
AcDbScale
 70
     0
300
3/32" = 1'-0"
140
0.09375
141
12.0
290
     0
  0
SCALE
  5
7D
102
{ACAD_REACTORS
330
66
102
}
330
66
100
AcDbScale
 70
     0
300
1/8" = 1'-0"
140
0.125
141
12.0
290
     0
  0
SCALE
  5
7E
102
{ACAD_REACTORS
330
66
102
}
330
66
100
AcDbScale
 70
     0
300
3/16" = 1'-0"
140
0.1875
141
12.0
290
     0
  0
SCALE
  5
7F
102
{ACAD_REACTORS
330
66
102
}
330
66
100
AcDbScale
 70
     0
300
1/4" = 1'-0"
140
0.25
141
12.0
290
     0
  0
SCALE
  5
80
102
{ACAD_REACTORS
330
66
102
}
330
66
100
AcDbScale
 70
     0
300
3/8" = 1'-0"
140
0.375
141
12.0
290
     0
  0
SCALE
  5
81
102
{ACAD_REACTORS
330
66
102
}
330
66
100
AcDbScale
 70
     0
300
1/2" = 1'-0"
140
0.5
141
12.0
290
     0
  0
SCALE
  5
82
102
{ACAD_REACTORS
330
66
102
}
330
66
100
AcDbScale
 70
     0
300
3/4" = 1'-0"
140
0.75
141
12.0
290
     0
  0
SCALE
  5
83
102
{ACAD_REACTORS
330
66
102
}
330
66
100
AcDbScale
 70
     0
300
1" = 1'-0"
140
1.0
141
12.0
290
     0
  0
SCALE
  5
84
102
{ACAD_REACTORS
330
66
102
}
330
66
100
AcDbScale
 70
     0
300
1-1/2" = 1'-0"
140
1.5
141
12.0
290
     0
  0
SCALE
  5
85
102
{ACAD_REACTORS
330
66
102
}
330
66
100
AcDbScale
 70
     0
300
3" = 1'-0"
140
3.0
141
12.0
290
     0
  0
SCALE
  5
86
102
{ACAD_REACTORS
330
66
102
}
330
66
100
AcDbScale
 70
     0
300
6" = 1'-0"
140
6.0
141
12.0
290
     0
  0
SCALE
  5
87
102
{ACAD_REACTORS
330
66
102
}
330
66
100
AcDbScale
 70
     0
300
1'-0" = 1'-0"
140
12.0
141
12.0
290
     0
  0
VISUALSTYLE
  5
2F
102
{ACAD_REACTORS
330
2A
102
}
102
{ACAD_XDICTIONARY
360
195
102
}
330
2A
100
AcDbVisualStyle
  2
2dWireframe
 70
     4
 71
     0
 72
     2
 73
     0
 90
        0
 40
-0.6
 41
-30.0
 62
     5
 63
     7
421
 16777215
 74
     1
 91
        4
 64
     7
 65
   257
 75
     1
175
     1
 42
1.0
 92
        0
 66
   257
 43
1.0
 76
     1
 77
     6
 78
     2
 67
     7
 79
     5
170
     0
171
     0
290
     0
174
     0
 93
        1
 44
0.0
173
     0
291
     0
 45
0.0
1001
ACAD
1000
AcDbSavedByObjectVersion
1070
     0
  0
VISUALSTYLE
  5
31
102
{ACAD_REACTORS
330
2A
102
}
102
{ACAD_XDICTIONARY
360
199
102
}
330
2A
100
AcDbVisualStyle
  2
3D Hidden
 70
     6
 71
     1
 72
     2
 73
     2
 90
        0
 40
-0.6
 41
-30.0
 62
     5
 63
     7
421
 16777215
 74
     2
 91
        2
 64
     7
 65
   257
 75
     2
175
     1
 42
40.0
 92
        0
 66
   257
 43
1.0
 76
     1
 77
     6
 78
     2
 67
     7
 79
     3
170
     0
171
     0
290
     0
174
     0
 93
        1
 44
0.0
173
     0
291
     0
 45
0.0
1001
ACAD
1000
AcDbSavedByObjectVersion
1070
     0
  0
VISUALSTYLE
  5
30
102
{ACAD_REACTORS
330
2A
102
}
102
{ACAD_XDICTIONARY
360
197
102
}
330
2A
100
AcDbVisualStyle
  2
3dWireframe
 70
     5
 71
     0
 72
     2
 73
     0
 90
        0
 40
-0.6
 41
-30.0
 62
     5
 63
     7
421
 16777215
 74
     1
 91
        4
 64
     7
 65
   257
 75
     1
175
     1
 42
1.0
 92
        0
 66
   257
 43
1.0
 76
     1
 77
     6
 78
     2
 67
     7
 79
     5
170
     0
171
     0
290
     0
174
     0
 93
        1
 44
0.0
173
     0
291
     0
 45
0.0
1001
ACAD
1000
AcDbSavedByObjectVersion
1070
     0
  0
VISUALSTYLE
  5
32
102
{ACAD_REACTORS
330
2A
102
}
102
{ACAD_XDICTIONARY
360
19B
102
}
330
2A
100
AcDbVisualStyle
  2
Basic
 70
     7
 71
     1
 72
     0
 73
     1
 90
        0
 40
-0.6
 41
-30.0
 62
     5
 63
     7
421
 16777215
 74
     0
 91
        4
 64
     7
 65
   257
 75
     1
175
     1
 42
1.0
 92
        8
 66
     7
 43
1.0
 76
     1
 77
     6
 78
     2
 67
     7
 79
     5
170
     0
171
     0
290
     0
174
     0
 93
        1
 44
0.0
173
     0
291
     1
 45
0.0
1001
ACAD
1000
AcDbSavedByObjectVersion
1070
     0
  0
VISUALSTYLE
  5
36
102
{ACAD_REACTORS
330
2A
102
}
102
{ACAD_XDICTIONARY
360
1A3
102
}
330
2A
100
AcDbVisualStyle
  2
Brighten
 70
    12
 71
     2
 72
     2
 73
     0
 90
        0
 40
-0.6
 41
-30.0
 62
     5
 63
     7
421
 16777215
 74
     1
 91
        4
 64
     7
 65
   257
 75
     1
175
     1
 42
1.0
 92
        8
 66
     7
 43
1.0
 76
     1
 77
     6
 78
     2
 67
     7
 79
     5
170
     0
171
     0
290
     0
174
     0
 93
        1
 44
50.0
173
     0
291
     1
 45
0.0
1001
ACAD
1000
AcDbSavedByObjectVersion
1070
     0
  0
VISUALSTYLE
  5
3A
102
{ACAD_REACTORS
330
2A
102
}
102
{ACAD_XDICTIONARY
360
1AB
102
}
330
2A
100
AcDbVisualStyle
  2
ColorChange
 70
    16
 71
     2
 72
     2
 73
     3
 90
        0
 40
-0.6
 41
-30.0
 62
     5
 63
     8
421
  8421504
 74
     1
 91
        4
 64
     7
 65
   257
 75
     1
175
     1
 42
1.0
 92
        8
 66
     8
424
  8421504
 43
1.0
 76
     1
 77
     6
 78
     2
 67
     7
 79
     5
170
     0
171
     0
290
     0
174
     0
 93
        1
 44
0.0
173
     0
291
     1
 45
0.0
1001
ACAD
1000
AcDbSavedByObjectVersion
1070
     0
  0
VISUALSTYLE
  5
34
102
{ACAD_REACTORS
330
2A
102
}
102
{ACAD_XDICTIONARY
360
19F
102
}
330
2A
100
AcDbVisualStyle
  2
Conceptual
 70
     9
 71
     3
 72
     2
 73
     0
 90
        0
 40
-0.6
 41
-30.0
 62
     5
 63
     7
421
 16777215
 74
     2
 91
        2
 64
     7
 65
   257
 75
     1
175
     1
 42
40.0
 92
        8
 66
     7
 43
1.0
 76
     1
 77
     6
 78
     2
 67
     7
 79
     3
170
     0
171
     0
290
     0
174
     0
 93
        1
 44
0.0
173
     0
291
     0
 45
0.0
1001
ACAD
1000
AcDbSavedByObjectVersion
1070
     0
  0
VISUALSTYLE
  5
35
102
{ACAD_REACTORS
330
2A
102
}
102
{ACAD_XDICTIONARY
360
1A1
102
}
330
2A
100
AcDbVisualStyle
  2
Dim
 70
    11
 71
     2
 72
     2
 73
     0
 90
        0
 40
-0.6
 41
-30.0
 62
     5
 63
     7
421
 16777215
 74
     1
 91
        4
 64
     7
 65
   257
 75
     1
175
     1
 42
1.0
 92
        8
 66
     7
 43
1.0
 76
     1
 77
     6
 78
     2
 67
     7
 79
     5
170
     0
171
     0
290
     0
174
     0
 93
        1
 44
-50.0
173
     0
291
     1
 45
0.0
1001
ACAD
1000
AcDbSavedByObjectVersion
1070
     0
  0
VISUALSTYLE
  5
39
102
{ACAD_REACTORS
330
2A
102
}
102
{ACAD_XDICTIONARY
360
1A9
102
}
330
2A
100
AcDbVisualStyle
  2
Facepattern
 70
    15
 71
     2
 72
     2
 73
     0
 90
        0
 40
-0.6
 41
-30.0
 62
     5
 63
     7
421
 16777215
 74
     1
 91
        4
 64
     7
 65
   257
 75
     1
175
     1
 42
1.0
 92
        8
 66
     7
 43
1.0
 76
     1
 77
     6
 78
     2
 67
     7
 79
     5
170
     0
171
     0
290
     0
174
     0
 93
        1
 44
0.0
173
     0
291
     1
 45
0.0
1001
ACAD
1000
AcDbSavedByObjectVersion
1070
     0
  0
VISUALSTYLE
  5
2B
102
{ACAD_REACTORS
330
2A
102
}
102
{ACAD_XDICTIONARY
360
18D
102
}
330
2A
100
AcDbVisualStyle
  2
Flat
 70
     0
 71
     2
 72
     1
 73
     1
 90
        2
 40
-0.6
 41
30.0
 62
     5
 63
     7
421
 16777215
 74
     0
 91
        4
 64
     7
 65
   257
 75
     1
175
     1
 42
1.0
 92
        8
 66
     7
 43
1.0
 76
     1
 77
     6
 78
     2
 67
     7
 79
     5
170
     0
171
     0
290
     0
174
     0
 93
       13
 44
0.0
173
     0
291
     1
 45
0.0
1001
ACAD
1000
AcDbSavedByObjectVersion
1070
     0
  0
VISUALSTYLE
  5
2C
102
{ACAD_REACTORS
330
2A
102
}
102
{ACAD_XDICTIONARY
360
18F
102
}
330
2A
100
AcDbVisualStyle
  2
FlatWithEdges
 70
     1
 71
     2
 72
     1
 73
     1
 90
        2
 40
-0.6
 41
30.0
 62
     5
 63
     7
421
 16777215
 74
     1
 91
        4
 64
     7
 65
   257
 75
     1
175
     1
 42
1.0
 92
        0
 66
   257
 43
1.0
 76
     1
 77
     6
 78
     2
 67
     7
 79
     5
170
     0
171
     0
290
     0
174
     0
 93
       13
 44
0.0
173
     0
291
     1
 45
0.0
1001
ACAD
1000
AcDbSavedByObjectVersion
1070
     0
  0
VISUALSTYLE
  5
2D
102
{ACAD_REACTORS
330
2A
102
}
102
{ACAD_XDICTIONARY
360
191
102
}
330
2A
100
AcDbVisualStyle
  2
Gouraud
 70
     2
 71
     2
 72
     2
 73
     1
 90
        2
 40
-0.6
 41
30.0
 62
     5
 63
     7
421
 16777215
 74
     0
 91
        4
 64
     7
 65
   257
 75
     1
175
     1
 42
1.0
 92
        0
 66
     7
 43
1.0
 76
     1
 77
     6
 78
     2
 67
     7
 79
     5
170
     0
171
     0
290
     0
174
     0
 93
       13
 44
0.0
173
     0
291
     1
 45
0.0
1001
ACAD
1000
AcDbSavedByObjectVersion
1070
     0
  0
VISUALSTYLE
  5
2E
102
{ACAD_REACTORS
330
2A
102
}
102
{ACAD_XDICTIONARY
360
193
102
}
330
2A
100
AcDbVisualStyle
  2
GouraudWithEdges
 70
     3
 71
     2
 72
     2
 73
     1
 90
        2
 40
-0.6
 41
30.0
 62
     5
 63
     7
421
 16777215
 74
     1
 91
        4
 64
     7
 65
   257
 75
     1
175
     1
 42
1.0
 92
        0
 66
   257
 43
1.0
 76
     1
 77
     6
 78
     2
 67
     7
 79
     5
170
     0
171
     0
290
     0
174
     0
 93
       13
 44
0.0
173
     0
291
     1
 45
0.0
1001
ACAD
1000
AcDbSavedByObjectVersion
1070
     0
  0
VISUALSTYLE
  5
38
102
{ACAD_REACTORS
330
2A
102
}
102
{ACAD_XDICTIONARY
360
1A7
102
}
330
2A
100
AcDbVisualStyle
  2
Linepattern
 70
    14
 71
     2
 72
     2
 73
     0
 90
        0
 40
-0.6
 41
-30.0
 62
     5
 63
     7
421
 16777215
 74
     1
 91
        4
 64
     7
 65
   257
 75
     7
175
     7
 42
1.0
 92
        8
 66
     7
 43
1.0
 76
     1
 77
     6
 78
     2
 67
     7
 79
     5
170
     0
171
     0
290
     0
174
     0
 93
        1
 44
0.0
173
     0
291
     1
 45
0.0
1001
ACAD
1000
AcDbSavedByObjectVersion
1070
     0
  0
VISUALSTYLE
  5
33
102
{ACAD_REACTORS
330
2A
102
}
102
{ACAD_XDICTIONARY
360
19D
102
}
330
2A
100
AcDbVisualStyle
  2
Realistic
 70
     8
 71
     2
 72
     2
 73
     0
 90
        0
 40
-0.6
 41
-30.0
 62
     5
 63
     7
421
 16777215
 74
     1
 91
        0
 64
     7
 65
   257
 75
     1
175
     1
 42
1.0
 92
        8
 66
     8
424
  7895160
 43
1.0
 76
     1
 77
     6
 78
     2
 67
     7
 79
     5
170
     0
171
     0
290
     0
174
     0
 93
       13
 44
0.0
173
     0
291
     0
 45
0.0
1001
ACAD
1000
AcDbSavedByObjectVersion
1070
     0
  0
VISUALSTYLE
  5
37
102
{ACAD_REACTORS
330
2A
102
}
102
{ACAD_XDICTIONARY
360
1A5
102
}
330
2A
100
AcDbVisualStyle
  2
Thicken
 70
    13
 71
     2
 72
     2
 73
     0
 90
        0
 40
-0.6
 41
-30.0
 62
     5
 63
     7
421
 16777215
 74
     1
 91
        4
 64
     7
 65
   257
 75
     1
175
     1
 42
1.0
 92
       12
 66
     7
 43
1.0
 76
     1
 77
     6
 78
     2
 67
     7
 79
     5
170
     0
171
     0
290
     0
174
     0
 93
        1
 44
0.0
173
     0
291
     1
 45
0.0
1001
ACAD
1000
AcDbSavedByObjectVersion
1070
     0
  0
DICTIONARYVAR
  5
18C
102
{ACAD_REACTORS
330
18B
102
}
330
18B
100
DictionaryVariables
280
     0
  1
1:1
  0
DICTIONARY
  5
1AF
330
3D
100
AcDbDictionary
280
     1
281
     1
  3
ACAD_XREC_ROUNDTRIP
360
1B0
  0
DICTIONARY
  5
1AD
330
3C
100
AcDbDictionary
280
     1
281
     1
  3
ACAD_XREC_ROUNDTRIP
360
1AE
  0
DICTIONARY
  5
1B1
330
3E
100
AcDbDictionary
280
     1
281
     1
  3
ACAD_XREC_ROUNDTRIP
360
1B2
  0
DICTIONARY
  5
195
330
2F
100
AcDbDictionary
280
     1
281
     1
  3
ACAD_XREC_ROUNDTRIP
360
196
  0
DICTIONARY
  5
199
330
31
100
AcDbDictionary
280
     1
281
     1
  3
ACAD_XREC_ROUNDTRIP
360
19A
  0
DICTIONARY
  5
197
330
30
100
AcDbDictionary
280
     1
281
     1
  3
ACAD_XREC_ROUNDTRIP
360
198
  0
DICTIONARY
  5
19B
330
32
100
AcDbDictionary
280
     1
281
     1
  3
ACAD_XREC_ROUNDTRIP
360
19C
  0
DICTIONARY
  5
1A3
330
36
100
AcDbDictionary
280
     1
281
     1
  3
ACAD_XREC_ROUNDTRIP
360
1A4
  0
DICTIONARY
  5
1AB
330
3A
100
AcDbDictionary
280
     1
281
     1
  3
ACAD_XREC_ROUNDTRIP
360
1AC
  0
DICTIONARY
  5
19F
330
34
100
AcDbDictionary
280
     1
281
     1
  3
ACAD_XREC_ROUNDTRIP
360
1A0
  0
DICTIONARY
  5
1A1
330
35
100
AcDbDictionary
280
     1
281
     1
  3
ACAD_XREC_ROUNDTRIP
360
1A2
  0
DICTIONARY
  5
1A9
330
39
100
AcDbDictionary
280
     1
281
     1
  3
ACAD_XREC_ROUNDTRIP
360
1AA
  0
DICTIONARY
  5
18D
330
2B
100
AcDbDictionary
280
     1
281
     1
  3
ACAD_XREC_ROUNDTRIP
360
18E
  0
DICTIONARY
  5
18F
330
2C
100
AcDbDictionary
280
     1
281
     1
  3
ACAD_XREC_ROUNDTRIP
360
190
  0
DICTIONARY
  5
191
330
2D
100
AcDbDictionary
280
     1
281
     1
  3
ACAD_XREC_ROUNDTRIP
360
192
  0
DICTIONARY
  5
193
330
2E
100
AcDbDictionary
280
     1
281
     1
  3
ACAD_XREC_ROUNDTRIP
360
194
  0
DICTIONARY
  5
1A7
330
38
100
AcDbDictionary
280
     1
281
     1
  3
ACAD_XREC_ROUNDTRIP
360
1A8
  0
DICTIONARY
  5
19D
330
33
100
AcDbDictionary
280
     1
281
     1
  3
ACAD_XREC_ROUNDTRIP
360
19E
  0
DICTIONARY
  5
1A5
330
37
100
AcDbDictionary
280
     1
281
     1
  3
ACAD_XREC_ROUNDTRIP
360
1A6
  0
XRECORD
  5
1B0
102
{ACAD_REACTORS
330
1AF
102
}
330
1AF
100
AcDbXrecord
280
     1
102
MATERIAL
148
0.0
149
0.0
149
0.0
 93
        0
 94
      127
282
     0
 72
     1
 77
     1
171
     1
175
     1
179
     1
273
     0
  0
XRECORD
  5
1AE
102
{ACAD_REACTORS
330
1AD
102
}
330
1AD
100
AcDbXrecord
280
     1
102
MATERIAL
148
0.0
149
0.0
149
0.0
 93
        0
 94
      127
282
     0
 72
     1
 77
     1
171
     1
175
     1
179
     1
273
     0
  0
XRECORD
  5
1B2
102
{ACAD_REACTORS
330
1B1
102
}
330
1B1
100
AcDbXrecord
280
     1
102
MATERIAL
148
0.0
149
0.0
149
0.0
 93
        0
 94
      127
282
     0
 72
     1
 77
     1
171
     1
175
     1
179
     1
273
     0
  0
XRECORD
  5
196
102
{ACAD_REACTORS
330
195
102
}
330
195
100
AcDbXrecord
280
     1
102
RTVSPropertyOp0
 70
     1
102
RTVSPropertyOp1
 70
     1
102
RTVSPropertyOp2
 70
     1
102
RTVSPropertyOp3
 70
     1
102
RTVSPropertyOp4
 70
     1
102
RTVSPropertyOp5
 70
     1
102
RTVSPropertyOp6
 70
     1
102
RTVSPropertyOp7
 70
     1
102
RTVSPropertyOp8
 70
     1
102
RTVSPropertyOp9
 70
     1
102
RTVSPropertyOp10
 70
     1
102
RTVSPropertyOp11
 70
     1
102
RTVSPropertyOp12
 70
     1
102
RTVSPropertyOp13
 70
     1
102
RTVSPropertyOp14
 70
     1
102
RTVSPropertyOp15
 70
     1
102
RTVSPropertyOp16
 70
     1
102
RTVSPropertyOp17
 70
     1
102
RTVSPropertyOp18
 70
     1
102
RTVSPropertyOp19
 70
     1
102
RTVSPropertyOp20
 70
     1
102
RTVSPropertyOp21
 70
     1
102
RTVSPropertyOp22
 70
     1
102
RTVSPropertyOp23
 70
     1
102
RTVSPropertyOp24
 70
     1
102
RTVSPropertyOp25
 70
     1
102
RTVSPropertyOp26
 70
     1
102
RTVSPropertyOp27
 70
     1
  0
XRECORD
  5
19A
102
{ACAD_REACTORS
330
199
102
}
330
199
100
AcDbXrecord
280
     1
102
RTVSPropertyOp0
 70
     1
102
RTVSPropertyOp1
 70
     1
102
RTVSPropertyOp2
 70
     1
102
RTVSPropertyOp3
 70
     1
102
RTVSPropertyOp4
 70
     1
102
RTVSPropertyOp5
 70
     1
102
RTVSPropertyOp6
 70
     1
102
RTVSPropertyOp7
 70
     1
102
RTVSPropertyOp8
 70
     1
102
RTVSPropertyOp9
 70
     1
102
RTVSPropertyOp10
 70
     1
102
RTVSPropertyOp11
 70
     1
102
RTVSPropertyOp12
 70
     1
102
RTVSPropertyOp13
 70
     1
102
RTVSPropertyOp14
 70
     1
102
RTVSPropertyOp15
 70
     1
102
RTVSPropertyOp16
 70
     1
102
RTVSPropertyOp17
 70
     1
102
RTVSPropertyOp18
 70
     1
102
RTVSPropertyOp19
 70
     1
102
RTVSPropertyOp20
 70
     1
102
RTVSPropertyOp21
 70
     1
102
RTVSPropertyOp22
 70
     1
102
RTVSPropertyOp23
 70
     1
102
RTVSPropertyOp24
 70
     1
102
RTVSPropertyOp25
 70
     1
102
RTVSPropertyOp26
 70
     1
102
RTVSPropertyOp27
 70
     1
  0
XRECORD
  5
198
102
{ACAD_REACTORS
330
197
102
}
330
197
100
AcDbXrecord
280
     1
102
RTVSPropertyOp0
 70
     1
102
RTVSPropertyOp1
 70
     1
102
RTVSPropertyOp2
 70
     1
102
RTVSPropertyOp3
 70
     1
102
RTVSPropertyOp4
 70
     1
102
RTVSPropertyOp5
 70
     1
102
RTVSPropertyOp6
 70
     1
102
RTVSPropertyOp7
 70
     1
102
RTVSPropertyOp8
 70
     1
102
RTVSPropertyOp9
 70
     1
102
RTVSPropertyOp10
 70
     1
102
RTVSPropertyOp11
 70
     1
102
RTVSPropertyOp12
 70
     1
102
RTVSPropertyOp13
 70
     1
102
RTVSPropertyOp14
 70
     1
102
RTVSPropertyOp15
 70
     1
102
RTVSPropertyOp16
 70
     1
102
RTVSPropertyOp17
 70
     1
102
RTVSPropertyOp18
 70
     1
102
RTVSPropertyOp19
 70
     1
102
RTVSPropertyOp20
 70
     1
102
RTVSPropertyOp21
 70
     1
102
RTVSPropertyOp22
 70
     1
102
RTVSPropertyOp23
 70
     1
102
RTVSPropertyOp24
 70
     1
102
RTVSPropertyOp25
 70
     1
102
RTVSPropertyOp26
 70
     1
102
RTVSPropertyOp27
 70
     1
  0
XRECORD
  5
19C
102
{ACAD_REACTORS
330
19B
102
}
330
19B
100
AcDbXrecord
280
     1
102
RTVSPropertyOp0
 70
     1
102
RTVSPropertyOp1
 70
     1
102
RTVSPropertyOp2
 70
     1
102
RTVSPropertyOp3
 70
     1
102
RTVSPropertyOp4
 70
     1
102
RTVSPropertyOp5
 70
     1
102
RTVSPropertyOp6
 70
     1
102
RTVSPropertyOp7
 70
     1
102
RTVSPropertyOp8
 70
     1
102
RTVSPropertyOp9
 70
     1
102
RTVSPropertyOp10
 70
     1
102
RTVSPropertyOp11
 70
     1
102
RTVSPropertyOp12
 70
     1
102
RTVSPropertyOp13
 70
     1
102
RTVSPropertyOp14
 70
     1
102
RTVSPropertyOp15
 70
     1
102
RTVSPropertyOp16
 70
     1
102
RTVSPropertyOp17
 70
     1
102
RTVSPropertyOp18
 70
     1
102
RTVSPropertyOp19
 70
     1
102
RTVSPropertyOp20
 70
     1
102
RTVSPropertyOp21
 70
     1
102
RTVSPropertyOp22
 70
     1
102
RTVSPropertyOp23
 70
     1
102
RTVSPropertyOp24
 70
     1
102
RTVSPropertyOp25
 70
     1
102
RTVSPropertyOp26
 70
     1
102
RTVSPropertyOp27
 70
     1
  0
XRECORD
  5
1A4
102
{ACAD_REACTORS
330
1A3
102
}
330
1A3
100
AcDbXrecord
280
     1
102
RTVSPropertyOp0
 70
     1
102
RTVSPropertyOp1
 70
     1
102
RTVSPropertyOp2
 70
     1
102
RTVSPropertyOp3
 70
     1
102
RTVSPropertyOp4
 70
     1
102
RTVSPropertyOp5
 70
     1
102
RTVSPropertyOp6
 70
     1
102
RTVSPropertyOp7
 70
     1
102
RTVSPropertyOp8
 70
     1
102
RTVSPropertyOp9
 70
     1
102
RTVSPropertyOp10
 70
     1
102
RTVSPropertyOp11
 70
     1
102
RTVSPropertyOp12
 70
     1
102
RTVSPropertyOp13
 70
     1
102
RTVSPropertyOp14
 70
     1
102
RTVSPropertyOp15
 70
     1
102
RTVSPropertyOp16
 70
     1
102
RTVSPropertyOp17
 70
     1
102
RTVSPropertyOp18
 70
     1
102
RTVSPropertyOp19
 70
     1
102
RTVSPropertyOp20
 70
     1
102
RTVSPropertyOp21
 70
     1
102
RTVSPropertyOp22
 70
     1
102
RTVSPropertyOp23
 70
     1
102
RTVSPropertyOp24
 70
     1
102
RTVSPropertyOp25
 70
     1
102
RTVSPropertyOp26
 70
     1
102
RTVSPropertyOp27
 70
     1
  0
XRECORD
  5
1AC
102
{ACAD_REACTORS
330
1AB
102
}
330
1AB
100
AcDbXrecord
280
     1
102
RTVSPropertyOp0
 70
     1
102
RTVSPropertyOp1
 70
     1
102
RTVSPropertyOp2
 70
     1
102
RTVSPropertyOp3
 70
     1
102
RTVSPropertyOp4
 70
     1
102
RTVSPropertyOp5
 70
     1
102
RTVSPropertyOp6
 70
     1
102
RTVSPropertyOp7
 70
     1
102
RTVSPropertyOp8
 70
     1
102
RTVSPropertyOp9
 70
     1
102
RTVSPropertyOp10
 70
     1
102
RTVSPropertyOp11
 70
     1
102
RTVSPropertyOp12
 70
     1
102
RTVSPropertyOp13
 70
     1
102
RTVSPropertyOp14
 70
     1
102
RTVSPropertyOp15
 70
     1
102
RTVSPropertyOp16
 70
     1
102
RTVSPropertyOp17
 70
     1
102
RTVSPropertyOp18
 70
     1
102
RTVSPropertyOp19
 70
     1
102
RTVSPropertyOp20
 70
     1
102
RTVSPropertyOp21
 70
     1
102
RTVSPropertyOp22
 70
     1
102
RTVSPropertyOp23
 70
     1
102
RTVSPropertyOp24
 70
     1
102
RTVSPropertyOp25
 70
     1
102
RTVSPropertyOp26
 70
     1
102
RTVSPropertyOp27
 70
     1
  0
XRECORD
  5
1A0
102
{ACAD_REACTORS
330
19F
102
}
330
19F
100
AcDbXrecord
280
     1
102
RTVSPropertyOp0
 70
     1
102
RTVSPropertyOp1
 70
     1
102
RTVSPropertyOp2
 70
     1
102
RTVSPropertyOp3
 70
     1
102
RTVSPropertyOp4
 70
     1
102
RTVSPropertyOp5
 70
     1
102
RTVSPropertyOp6
 70
     1
102
RTVSPropertyOp7
 70
     1
102
RTVSPropertyOp8
 70
     1
102
RTVSPropertyOp9
 70
     1
102
RTVSPropertyOp10
 70
     1
102
RTVSPropertyOp11
 70
     1
102
RTVSPropertyOp12
 70
     1
102
RTVSPropertyOp13
 70
     1
102
RTVSPropertyOp14
 70
     1
102
RTVSPropertyOp15
 70
     1
102
RTVSPropertyOp16
 70
     1
102
RTVSPropertyOp17
 70
     1
102
RTVSPropertyOp18
 70
     1
102
RTVSPropertyOp19
 70
     1
102
RTVSPropertyOp20
 70
     1
102
RTVSPropertyOp21
 70
     1
102
RTVSPropertyOp22
 70
     1
102
RTVSPropertyOp23
 70
     1
102
RTVSPropertyOp24
 70
     1
102
RTVSPropertyOp25
 70
     1
102
RTVSPropertyOp26
 70
     1
102
RTVSPropertyOp27
 70
     1
  0
XRECORD
  5
1A2
102
{ACAD_REACTORS
330
1A1
102
}
330
1A1
100
AcDbXrecord
280
     1
102
RTVSPropertyOp0
 70
     1
102
RTVSPropertyOp1
 70
     1
102
RTVSPropertyOp2
 70
     1
102
RTVSPropertyOp3
 70
     1
102
RTVSPropertyOp4
 70
     1
102
RTVSPropertyOp5
 70
     1
102
RTVSPropertyOp6
 70
     1
102
RTVSPropertyOp7
 70
     1
102
RTVSPropertyOp8
 70
     1
102
RTVSPropertyOp9
 70
     1
102
RTVSPropertyOp10
 70
     1
102
RTVSPropertyOp11
 70
     1
102
RTVSPropertyOp12
 70
     1
102
RTVSPropertyOp13
 70
     1
102
RTVSPropertyOp14
 70
     1
102
RTVSPropertyOp15
 70
     1
102
RTVSPropertyOp16
 70
     1
102
RTVSPropertyOp17
 70
     1
102
RTVSPropertyOp18
 70
     1
102
RTVSPropertyOp19
 70
     1
102
RTVSPropertyOp20
 70
     1
102
RTVSPropertyOp21
 70
     1
102
RTVSPropertyOp22
 70
     1
102
RTVSPropertyOp23
 70
     1
102
RTVSPropertyOp24
 70
     1
102
RTVSPropertyOp25
 70
     1
102
RTVSPropertyOp26
 70
     1
102
RTVSPropertyOp27
 70
     1
  0
XRECORD
  5
1AA
102
{ACAD_REACTORS
330
1A9
102
}
330
1A9
100
AcDbXrecord
280
     1
102
RTVSPropertyOp0
 70
     1
102
RTVSPropertyOp1
 70
     1
102
RTVSPropertyOp2
 70
     1
102
RTVSPropertyOp3
 70
     1
102
RTVSPropertyOp4
 70
     1
102
RTVSPropertyOp5
 70
     1
102
RTVSPropertyOp6
 70
     1
102
RTVSPropertyOp7
 70
     1
102
RTVSPropertyOp8
 70
     1
102
RTVSPropertyOp9
 70
     1
102
RTVSPropertyOp10
 70
     1
102
RTVSPropertyOp11
 70
     1
102
RTVSPropertyOp12
 70
     1
102
RTVSPropertyOp13
 70
     1
102
RTVSPropertyOp14
 70
     1
102
RTVSPropertyOp15
 70
     1
102
RTVSPropertyOp16
 70
     1
102
RTVSPropertyOp17
 70
     1
102
RTVSPropertyOp18
 70
     1
102
RTVSPropertyOp19
 70
     1
102
RTVSPropertyOp20
 70
     1
102
RTVSPropertyOp21
 70
     1
102
RTVSPropertyOp22
 70
     1
102
RTVSPropertyOp23
 70
     1
102
RTVSPropertyOp24
 70
     1
102
RTVSPropertyOp25
 70
     1
102
RTVSPropertyOp26
 70
     1
102
RTVSPropertyOp27
 70
     1
  0
XRECORD
  5
18E
102
{ACAD_REACTORS
330
18D
102
}
330
18D
100
AcDbXrecord
280
     1
102
RTVSPropertyOp0
 70
     1
102
RTVSPropertyOp1
 70
     1
102
RTVSPropertyOp2
 70
     1
102
RTVSPropertyOp3
 70
     1
102
RTVSPropertyOp4
 70
     1
102
RTVSPropertyOp5
 70
     1
102
RTVSPropertyOp6
 70
     1
102
RTVSPropertyOp7
 70
     1
102
RTVSPropertyOp8
 70
     1
102
RTVSPropertyOp9
 70
     1
102
RTVSPropertyOp10
 70
     1
102
RTVSPropertyOp11
 70
     1
102
RTVSPropertyOp12
 70
     1
102
RTVSPropertyOp13
 70
     1
102
RTVSPropertyOp14
 70
     1
102
RTVSPropertyOp15
 70
     1
102
RTVSPropertyOp16
 70
     1
102
RTVSPropertyOp17
 70
     1
102
RTVSPropertyOp18
 70
     1
102
RTVSPropertyOp19
 70
     1
102
RTVSPropertyOp20
 70
     1
102
RTVSPropertyOp21
 70
     1
102
RTVSPropertyOp22
 70
     1
102
RTVSPropertyOp23
 70
     1
102
RTVSPropertyOp24
 70
     1
102
RTVSPropertyOp25
 70
     1
102
RTVSPropertyOp26
 70
     1
102
RTVSPropertyOp27
 70
     1
  0
XRECORD
  5
190
102
{ACAD_REACTORS
330
18F
102
}
330
18F
100
AcDbXrecord
280
     1
102
RTVSPropertyOp0
 70
     1
102
RTVSPropertyOp1
 70
     1
102
RTVSPropertyOp2
 70
     1
102
RTVSPropertyOp3
 70
     1
102
RTVSPropertyOp4
 70
     1
102
RTVSPropertyOp5
 70
     1
102
RTVSPropertyOp6
 70
     1
102
RTVSPropertyOp7
 70
     1
102
RTVSPropertyOp8
 70
     1
102
RTVSPropertyOp9
 70
     1
102
RTVSPropertyOp10
 70
     1
102
RTVSPropertyOp11
 70
     1
102
RTVSPropertyOp12
 70
     1
102
RTVSPropertyOp13
 70
     1
102
RTVSPropertyOp14
 70
     1
102
RTVSPropertyOp15
 70
     1
102
RTVSPropertyOp16
 70
     1
102
RTVSPropertyOp17
 70
     1
102
RTVSPropertyOp18
 70
     1
102
RTVSPropertyOp19
 70
     1
102
RTVSPropertyOp20
 70
     1
102
RTVSPropertyOp21
 70
     1
102
RTVSPropertyOp22
 70
     1
102
RTVSPropertyOp23
 70
     1
102
RTVSPropertyOp24
 70
     1
102
RTVSPropertyOp25
 70
     1
102
RTVSPropertyOp26
 70
     1
102
RTVSPropertyOp27
 70
     1
  0
XRECORD
  5
192
102
{ACAD_REACTORS
330
191
102
}
330
191
100
AcDbXrecord
280
     1
102
RTVSPropertyOp0
 70
     1
102
RTVSPropertyOp1
 70
     1
102
RTVSPropertyOp2
 70
     1
102
RTVSPropertyOp3
 70
     1
102
RTVSPropertyOp4
 70
     1
102
RTVSPropertyOp5
 70
     1
102
RTVSPropertyOp6
 70
     1
102
RTVSPropertyOp7
 70
     1
102
RTVSPropertyOp8
 70
     1
102
RTVSPropertyOp9
 70
     1
102
RTVSPropertyOp10
 70
     1
102
RTVSPropertyOp11
 70
     1
102
RTVSPropertyOp12
 70
     1
102
RTVSPropertyOp13
 70
     1
102
RTVSPropertyOp14
 70
     1
102
RTVSPropertyOp15
 70
     1
102
RTVSPropertyOp16
 70
     1
102
RTVSPropertyOp17
 70
     1
102
RTVSPropertyOp18
 70
     1
102
RTVSPropertyOp19
 70
     1
102
RTVSPropertyOp20
 70
     1
102
RTVSPropertyOp21
 70
     1
102
RTVSPropertyOp22
 70
     1
102
RTVSPropertyOp23
 70
     1
102
RTVSPropertyOp24
 70
     1
102
RTVSPropertyOp25
 70
     1
102
RTVSPropertyOp26
 70
     1
102
RTVSPropertyOp27
 70
     1
  0
XRECORD
  5
194
102
{ACAD_REACTORS
330
193
102
}
330
193
100
AcDbXrecord
280
     1
102
RTVSPropertyOp0
 70
     1
102
RTVSPropertyOp1
 70
     1
102
RTVSPropertyOp2
 70
     1
102
RTVSPropertyOp3
 70
     1
102
RTVSPropertyOp4
 70
     1
102
RTVSPropertyOp5
 70
     1
102
RTVSPropertyOp6
 70
     1
102
RTVSPropertyOp7
 70
     1
102
RTVSPropertyOp8
 70
     1
102
RTVSPropertyOp9
 70
     1
102
RTVSPropertyOp10
 70
     1
102
RTVSPropertyOp11
 70
     1
102
RTVSPropertyOp12
 70
     1
102
RTVSPropertyOp13
 70
     1
102
RTVSPropertyOp14
 70
     1
102
RTVSPropertyOp15
 70
     1
102
RTVSPropertyOp16
 70
     1
102
RTVSPropertyOp17
 70
     1
102
RTVSPropertyOp18
 70
     1
102
RTVSPropertyOp19
 70
     1
102
RTVSPropertyOp20
 70
     1
102
RTVSPropertyOp21
 70
     1
102
RTVSPropertyOp22
 70
     1
102
RTVSPropertyOp23
 70
     1
102
RTVSPropertyOp24
 70
     1
102
RTVSPropertyOp25
 70
     1
102
RTVSPropertyOp26
 70
     1
102
RTVSPropertyOp27
 70
     1
  0
XRECORD
  5
1A8
102
{ACAD_REACTORS
330
1A7
102
}
330
1A7
100
AcDbXrecord
280
     1
102
RTVSPropertyOp0
 70
     1
102
RTVSPropertyOp1
 70
     1
102
RTVSPropertyOp2
 70
     1
102
RTVSPropertyOp3
 70
     1
102
RTVSPropertyOp4
 70
     1
102
RTVSPropertyOp5
 70
     1
102
RTVSPropertyOp6
 70
     1
102
RTVSPropertyOp7
 70
     1
102
RTVSPropertyOp8
 70
     1
102
RTVSPropertyOp9
 70
     1
102
RTVSPropertyOp10
 70
     1
102
RTVSPropertyOp11
 70
     1
102
RTVSPropertyOp12
 70
     1
102
RTVSPropertyOp13
 70
     1
102
RTVSPropertyOp14
 70
     1
102
RTVSPropertyOp15
 70
     1
102
RTVSPropertyOp16
 70
     1
102
RTVSPropertyOp17
 70
     1
102
RTVSPropertyOp18
 70
     1
102
RTVSPropertyOp19
 70
     1
102
RTVSPropertyOp20
 70
     1
102
RTVSPropertyOp21
 70
     1
102
RTVSPropertyOp22
 70
     1
102
RTVSPropertyOp23
 70
     1
102
RTVSPropertyOp24
 70
     1
102
RTVSPropertyOp25
 70
     1
102
RTVSPropertyOp26
 70
     1
102
RTVSPropertyOp27
 70
     1
  0
XRECORD
  5
19E
102
{ACAD_REACTORS
330
19D
102
}
330
19D
100
AcDbXrecord
280
     1
102
RTVSPropertyOp0
 70
     1
102
RTVSPropertyOp1
 70
     1
102
RTVSPropertyOp2
 70
     1
102
RTVSPropertyOp3
 70
     1
102
RTVSPropertyOp4
 70
     1
102
RTVSPropertyOp5
 70
     1
102
RTVSPropertyOp6
 70
     1
102
RTVSPropertyOp7
 70
     1
102
RTVSPropertyOp8
 70
     1
102
RTVSPropertyOp9
 70
     1
102
RTVSPropertyOp10
 70
     1
102
RTVSPropertyOp11
 70
     1
102
RTVSPropertyOp12
 70
     1
102
RTVSPropertyOp13
 70
     1
102
RTVSPropertyOp14
 70
     1
102
RTVSPropertyOp15
 70
     1
102
RTVSPropertyOp16
 70
     1
102
RTVSPropertyOp17
 70
     1
102
RTVSPropertyOp18
 70
     1
102
RTVSPropertyOp19
 70
     1
102
RTVSPropertyOp20
 70
     1
102
RTVSPropertyOp21
 70
     1
102
RTVSPropertyOp22
 70
     1
102
RTVSPropertyOp23
 70
     1
102
RTVSPropertyOp24
 70
     1
102
RTVSPropertyOp25
 70
     1
102
RTVSPropertyOp26
 70
     1
102
RTVSPropertyOp27
 70
     1
  0
XRECORD
  5
1A6
102
{ACAD_REACTORS
330
1A5
102
}
330
1A5
100
AcDbXrecord
280
     1
102
RTVSPropertyOp0
 70
     1
102
RTVSPropertyOp1
 70
     1
102
RTVSPropertyOp2
 70
     1
102
RTVSPropertyOp3
 70
     1
102
RTVSPropertyOp4
 70
     1
102
RTVSPropertyOp5
 70
     1
102
RTVSPropertyOp6
 70
     1
102
RTVSPropertyOp7
 70
     1
102
RTVSPropertyOp8
 70
     1
102
RTVSPropertyOp9
 70
     1
102
RTVSPropertyOp10
 70
     1
102
RTVSPropertyOp11
 70
     1
102
RTVSPropertyOp12
 70
     1
102
RTVSPropertyOp13
 70
     1
102
RTVSPropertyOp14
 70
     1
102
RTVSPropertyOp15
 70
     1
102
RTVSPropertyOp16
 70
     1
102
RTVSPropertyOp17
 70
     1
102
RTVSPropertyOp18
 70
     1
102
RTVSPropertyOp19
 70
     1
102
RTVSPropertyOp20
 70
     1
102
RTVSPropertyOp21
 70
     1
102
RTVSPropertyOp22
 70
     1
102
RTVSPropertyOp23
 70
     1
102
RTVSPropertyOp24
 70
     1
102
RTVSPropertyOp25
 70
     1
102
RTVSPropertyOp26
 70
     1
102
RTVSPropertyOp27
 70
     1
  0
ENDSEC
  0
EOF
